<?xml  version="1.0" encoding="UTF-8"?>
<!DOCTYPE svg PUBLIC "-//W3C//DTD SVG 1.0//EN" "http://www.w3.org/TR/2001/REC-SVG-20010904/DTD/svg10.dtd" >
<svg xmlns="http://www.w3.org/2000/svg" >
<metadata>
<version>1.0</version>
<id><![CDATA[Novecento W00 Bold]]></id>
<vendor>Monotype Imaging Inc.</vendor>
<credits>
<name>Fonts.com WebFonts</name>
<URL>http://webfonts.fonts.com</URL>
<role>Home of the Web fonts</role>
</credits>
<license>
<URL>http://webfonts.fonts.com/Legal</URL>
</license>
<copyright></copyright>
<trademark></trademark>
<licensee>
<name></name>
</licensee>
</metadata>
<defs >
<font horiz-adv-x="608" id="ebe1c924-e388-489f-af72-9448841b7ee7">
<font-face font-family="" panose-1="0 0 8 0 0 0 0 0 0 0" ascent="844" descent="-156" units-per-em="1000" alphabetic="0">
</font-face>
<missing-glyph horiz-adv-x="647" d="M537 461L425 342L536 224L429 122L324 235L219 124L112 226L222 342L111 459L219 561L324 450L429 563L537 461ZM477 20Q514 20 532 37T551 96V604Q551 646 531 663T467 680H181Q133 680 115 663T97 604V96Q97 54 116 37T171 20H477ZM74 615Q74 655 98 677T159 700H489Q526 700 550 678T574 615V85Q574 43 550 22T489 0H159Q122 0 98 21T74 85V615Z"  />

<glyph unicode="&#xA;" />
<glyph unicode="&#xD;" />
<glyph unicode=" " horiz-adv-x="238" />
<glyph unicode="!" horiz-adv-x="312" d="M74 157H238V0H74V157ZM74 700H238V216H74V700Z"  />
<glyph unicode="&quot;" horiz-adv-x="575" d="M346 700H501V483H346V700ZM74 700H229V483H74V700Z"  />
<glyph unicode="#" horiz-adv-x="885" d="M533 417H402L342 283H471L533 417ZM696 417L636 283H724L655 138H570L508 0H338L403 138H276L214 0H44L109 138H27L97 283H177L239 417H159L228 561H307L372 700H530L467 561H601L666 700H824L761 561H855L786 417H696Z"  />
<glyph unicode="$" horiz-adv-x="583" d="M398 481Q384 527 352 549T284 571Q250 571 231 556T212 520Q212 504 223 492T253 468T300 445T360 419Q395 404 430 385T494 339T541 280T559 202Q559 125 511 70T379 -6V-90H219V-4Q143 16 93 69T20 198L177 240Q183 219 194 200T222 167T260 143T307 134Q346 134 366 151T387 194Q387 214 375 228T340 253T289 276T225 302Q192 318 160 336T102 379T61 435T45 513Q45 544 57 574T91 630T146 675T219 705V790H379V701Q444 681 489 634T554 524L398 481Z"  />
<glyph unicode="%" horiz-adv-x="836" d="M658 100Q687 100 703 126T719 193Q719 235 703 261T658 287Q630 287 613 261T596 193Q596 153 613 127T658 100ZM658 -8Q620 -8 589 7T536 48T502 112T490 193Q490 238 502 275T536 338T589 380T658 395Q695 395 726 380T779 339T813 275T825 193Q825 149 813 112T779 49T726 7T658 -8ZM179 413Q208 413 224 439T240 506Q240 548 224 574T179 600Q151 600 134 574T117 506Q117 466 134 440T179 413ZM599 700H703L238 0H133L599 700ZM179 305Q141 305 110 320T57 361T23 425T11 506Q11 551 23 588T57 651T110 693T179 708Q216 708 247 693T300 652T334 588T346 506Q346 462 334 425T300 362T247 320T179 305Z"  />
<glyph unicode="&amp;" horiz-adv-x="675" d="M406 294H301Q246 294 220 271T194 210Q194 174 221 151T293 128Q347 128 376 153T406 238V294ZM673 294H560V230Q560 179 544 135T495 57T412 5T291 -14Q234 -14 187 2T105 46T52 115T33 204Q33 234 44 260T74 308T118 342T171 360V361Q151 363 129 374T87 404T56 450T43 511Q43 557 60 594T110 658T186 699T283 714Q380 714 444 662T531 519L393 481Q377 526 354 551T286 576Q265 576 251 569T227 552T214 529T210 506Q210 471 234 447T310 423H673V294Z"  />
<glyph unicode="&apos;" horiz-adv-x="303" d="M74 700H229V483H74V700Z"  />
<glyph unicode="(" horiz-adv-x="383" d="M364 668Q315 653 284 624T234 552T208 457T201 342Q201 280 208 227T233 132T283 61T364 16L322 -141Q297 -134 266 -121T204 -84T142 -26T88 60T50 180T35 342Q35 434 49 503T87 624T141 710T203 768T266 805T322 826L364 668Z"  />
<glyph unicode=")" horiz-adv-x="383" d="M61 826Q86 818 117 805T179 769T241 710T295 624T333 504T348 342Q348 250 334 181T296 60T242 -26T180 -84T117 -120T61 -141L19 16Q68 31 99 60T149 132T175 227T182 342Q182 403 175 456T150 552T100 623T19 668L61 826Z"  />
<glyph unicode="*" horiz-adv-x="475" d="M401 535L312 509L371 432L290 371L237 451L185 371L104 431L163 509L74 535L104 632L189 602L187 700H287L285 602L370 632L401 535Z"  />
<glyph unicode="+" horiz-adv-x="651" d="M539 287H396V138H256V287H113V422H255V572H395V422H539V287Z"  />
<glyph unicode="&#x2c;" horiz-adv-x="259" d="M123 -6L108 -4Q87 0 70 18T52 67Q52 99 74 121T128 144Q159 144 181 120T203 57Q203 33 194 8T170 -43T135 -91T93 -133H34Q47 -124 60 -109T83 -75T101 -40T108 -10L123 -6Z"  />
<glyph unicode="-" horiz-adv-x="573" d="M500 422V287H74V422H500Z"  />
<glyph unicode="." horiz-adv-x="259" d="M130 -12Q98 -12 76 11T53 66Q53 98 75 120T130 143Q162 143 184 121T206 66Q206 34 184 11T130 -12Z"  />
<glyph unicode="/" horiz-adv-x="492" d="M331 700H489L173 0H3L331 700Z"  />
<glyph unicode="0" horiz-adv-x="670" d="M334 553Q265 553 233 498T201 350Q201 257 233 202T334 147Q402 147 435 202T469 350Q469 442 436 497T334 553ZM334 714Q404 714 460 686T555 610T615 495T636 350Q636 272 615 206T555 91T460 14T334 -14Q264 -14 208 14T113 90T54 205T33 350Q33 428 53 494T113 609T208 686T334 714Z"  />
<glyph unicode="1" horiz-adv-x="448" d="M374 700V0H212V327Q212 349 212 372T214 415T215 446T215 459H214Q214 459 210 454T199 441T183 422T164 402L136 374L33 472L261 700H374Z"  />
<glyph unicode="2" horiz-adv-x="582" d="M48 521Q59 560 80 595T134 656T207 698T300 714Q355 714 400 698T477 652T527 582T545 494Q545 447 531 411T494 346T440 291T379 241Q357 223 337 207T300 179T274 160T264 152L265 151Q266 151 308 153T418 156H542V0H55V132Q121 195 186 256T317 381Q346 409 363 436T380 493Q380 524 357 546T297 569Q275 569 259 561T230 541T210 513T197 481L48 521Z"  />
<glyph unicode="3" horiz-adv-x="586" d="M45 520Q69 611 134 662T300 714Q355 714 399 699T474 656T522 591T539 511Q539 474 526 447T492 401T450 373T409 362V361Q432 361 457 351T504 322T539 272T553 202Q553 155 534 116T481 47T401 2T300 -14Q250 -14 206 0T127 41T68 102T33 179L181 219Q192 184 219 159T293 134Q331 134 358 155T386 215Q386 250 360 272T290 294H233V423H287Q330 423 351 445T373 498Q373 530 351 549T290 569Q251 569 228 545T190 482L45 520Z"  />
<glyph unicode="4" horiz-adv-x="618" d="M358 271V304Q358 331 359 361T360 416T362 459T363 476H361Q361 476 355 467T339 443T319 413T298 384L247 318Q210 270 210 271V270Q214 270 235 270T288 271H358ZM581 127H512V0H358V127H33V252L376 700H512V271H581V127Z"  />
<glyph unicode="5" horiz-adv-x="586" d="M230 444Q241 450 259 454T303 459Q355 459 400 442T478 395T531 322T550 229Q550 177 531 133T479 56T400 5T300 -14Q247 -14 205 2T131 43T78 100T48 164L197 203Q201 191 208 178T226 154T254 136T294 129Q335 129 360 157T386 231Q386 278 359 305T294 333Q252 333 235 317T211 285L70 323L134 700H509V545H252L250 535Q239 484 234 465T229 445L230 444Z"  />
<glyph unicode="6" horiz-adv-x="571" d="M297 133Q343 133 371 161T399 232Q399 277 371 304T297 331Q250 331 222 303T194 232Q194 187 223 160T297 133ZM271 451L273 450Q280 456 291 462T328 469Q380 469 421 450T492 397T536 319T552 224Q552 172 532 128T478 53T395 4T292 -14Q239 -14 192 3T109 53T54 130T33 232Q33 274 41 310T65 381T102 450T150 520L281 700H452L271 451Z"  />
<glyph unicode="7" horiz-adv-x="540" d="M527 700V600L219 0H46L242 375Q259 407 276 437T308 492T332 531T342 546L341 547Q341 547 330 547T303 546T268 546T234 545H30V700H527Z"  />
<glyph unicode="8" horiz-adv-x="579" d="M187 203Q187 165 216 141T290 116Q335 116 363 141T392 203Q392 241 363 265T290 290Q244 290 216 265T187 203ZM201 519Q201 487 226 466T290 445Q329 445 354 466T379 519Q379 552 354 573T290 594Q250 594 226 573T201 519ZM414 372Q434 367 457 353T500 318T533 266T546 199Q546 153 527 114T474 47T392 2T290 -15Q234 -15 187 1T105 47T52 115T33 199Q33 237 46 267T79 318T122 353T165 372V373Q151 377 134 389T100 420T74 466T63 525Q63 565 80 600T127 660T198 699T290 714Q339 714 380 700T452 660T499 600T516 525Q516 493 506 467T480 421T446 389T414 373V372Z"  />
<glyph unicode="9" horiz-adv-x="573" d="M277 567Q230 567 202 539T173 467Q173 422 202 395T277 368Q323 368 351 396T380 467Q380 512 351 539T277 567ZM303 245L302 246Q294 238 279 234T248 230Q192 230 150 249T78 302T34 379T19 474Q19 529 39 573T94 648T176 697T280 714Q333 714 380 697T463 648T519 570T540 467Q540 399 515 331T433 191L285 0H107L303 245Z"  />
<glyph unicode=":" horiz-adv-x="259" d="M130 -12Q98 -12 76 11T53 66Q53 98 75 120T130 143Q162 143 184 121T206 66Q206 34 184 11T130 -12ZM130 279Q98 279 76 302T53 357Q53 389 75 411T130 434Q162 434 184 412T206 357Q206 325 184 302T130 279Z"  />
<glyph unicode=";" horiz-adv-x="276" d="M142 -6L127 -4Q106 0 89 18T71 67Q71 99 93 121T147 144Q178 144 200 120T222 57Q222 33 213 8T189 -43T154 -91T112 -133H53Q66 -124 79 -109T102 -75T120 -40T127 -10L142 -6ZM148 279Q116 279 94 302T71 357Q71 389 93 411T148 434Q180 434 202 412T224 357Q224 325 202 302T148 279Z"  />
<glyph unicode="&lt;" horiz-adv-x="651" d="M529 122H347L108 367L347 611H529L301 367L529 122Z"  />
<glyph unicode="=" horiz-adv-x="651" d="M539 293V158H113V293H539ZM539 532V397H113V532H539Z"  />
<glyph unicode="&gt;" horiz-adv-x="651" d="M350 367L122 611H304L543 367L304 122H122L350 367Z"  />
<glyph unicode="?" horiz-adv-x="562" d="M193 157H357V0H193V157ZM193 343Q237 371 269 391T321 429T351 463T361 500Q361 525 342 547T281 570Q236 570 211 547T171 481L33 519Q56 613 124 663T290 714Q345 714 389 698T464 655T511 589T528 507Q528 466 515 435T478 377T424 330T357 286V216H193V343Z"  />
<glyph unicode="@" horiz-adv-x="776" d="M447 341Q448 368 442 385T425 414T401 429T376 434Q363 434 350 429T326 412T309 383T302 341Q302 317 308 300T325 271T349 254T376 248Q388 248 400 253T422 268T439 294T447 332V341ZM552 524V283Q552 251 560 231T592 211Q610 211 620 223T636 254T644 298T646 345Q646 406 627 457T574 545T492 604T387 625Q330 625 283 604T201 546T148 457T129 345Q129 285 147 235T200 147T280 89T383 68Q425 68 453 74T499 89T525 103T536 110L608 74Q608 71 594 57T553 28T483 -1T383 -14Q306 -14 242 13T132 88T59 201T33 345Q33 425 59 492T133 609T245 686T387 714Q464 714 529 687T642 610T716 493T743 345Q743 311 735 274T707 205T656 154T580 133Q538 133 507 155T466 214L464 215Q459 201 448 188T421 163T387 146T349 139Q310 139 279 153T226 194T192 257T180 338Q180 383 192 420T228 484T285 525T359 540Q379 540 394 534T420 519T437 502T446 490H447V524H552Z"  />
<glyph unicode="A" horiz-adv-x="677" d="M418 257L369 409Q363 428 358 447T349 481T342 505T339 514H338Q338 514 336 505T329 481T320 447T308 409L259 257H418ZM465 110H212L177 0H3L254 700H424L675 0H500L465 110Z"  />
<glyph unicode="B" horiz-adv-x="623" d="M338 139Q378 139 401 161T424 220Q424 258 400 279T338 301H238V139H338ZM324 428Q356 428 377 446T398 494Q398 524 377 542T324 561H238V428H324ZM349 700Q396 700 435 686T501 647T544 588T560 515Q560 488 552 465T530 425T501 396T471 380V379Q495 373 517 358T557 320T584 270T595 212Q595 166 580 128T535 61T458 16T349 0H74V700H349Z"  />
<glyph unicode="C" horiz-adv-x="693" d="M493 485Q471 520 436 536T364 553Q288 553 246 499T204 350Q204 254 248 202T365 149Q410 149 448 170T506 235L668 192Q630 96 550 41T364 -14Q293 -14 232 12T127 85T58 200T33 350Q33 432 58 499T127 614T232 688T364 714Q464 714 539 665T657 528L493 485Z"  />
<glyph unicode="D" horiz-adv-x="723" d="M349 155Q386 155 417 167T470 204T506 265T519 347Q519 395 506 431T469 493T414 532T346 545H238V155H349ZM339 700Q415 700 479 675T590 604T663 493T690 347Q690 267 664 203T592 94T481 25T341 0H74V700H339Z"  />
<glyph unicode="E" horiz-adv-x="615" d="M551 156V0H74V700H545V545H238V428H475V282H238V156H551Z"  />
<glyph unicode="F" horiz-adv-x="569" d="M238 545V406H468V256H238V0H74V700H538V545H238Z"  />
<glyph unicode="G" horiz-adv-x="724" d="M531 58Q506 29 459 8T360 -13Q290 -13 231 13T127 86T58 200T33 350Q33 432 58 499T127 614T232 688T364 714Q463 714 539 665T657 528L493 485Q470 520 436 536T364 553Q288 553 246 499T203 350Q203 302 215 264T251 200T305 160T376 146Q412 146 438 155T482 179T512 213T531 253V264H368V397H670V0H531Q531 35 531 46T532 58H531Z"  />
<glyph unicode="H" horiz-adv-x="706" d="M633 700V0H468V272H238V0H74V700H238V430H468V700H633Z"  />
<glyph unicode="I" horiz-adv-x="312" d="M74 0V700H238V0H74Z"  />
<glyph unicode="J" horiz-adv-x="639" d="M576 700V295Q576 221 555 164T496 67T403 7T283 -14Q233 -14 190 -1T112 36T51 93T11 165L171 208Q202 141 283 141Q344 141 378 179T412 285V700H576Z"  />
<glyph unicode="K" horiz-adv-x="693" d="M485 0L287 290L238 238V0H74V700H238V587Q238 509 237 475T236 440H237Q238 440 255 462T322 537L475 700H675L395 404L677 0H485Z"  />
<glyph unicode="L" horiz-adv-x="561" d="M541 156V0H74V700H238V156H541Z"  />
<glyph unicode="M" horiz-adv-x="801" d="M728 700V0H568V186Q568 301 573 362T577 424H576Q576 424 568 410T551 378T532 341T518 315L442 173H359L283 315Q280 323 271 341T252 377T234 410T226 424H224Q223 424 228 363T233 186V0H74V700H228L348 488Q381 429 390 405T400 381H401Q401 381 403 386T411 405T427 438T454 488L574 700H728Z"  />
<glyph unicode="N" horiz-adv-x="729" d="M655 700V0H505L367 212Q346 242 323 277T280 341T247 390T234 410H232Q232 410 232 392T234 339T236 259T237 155V0H74V700H224L370 479Q385 456 406 425T447 365T481 316T495 295H496Q496 295 496 315T495 368T493 446T492 540V700H655Z"  />
<glyph unicode="O" horiz-adv-x="729" d="M204 350Q204 254 246 201T364 147Q439 147 482 200T525 350Q525 447 482 500T364 553Q289 553 247 500T204 350ZM33 350Q33 432 58 499T127 614T232 688T364 714Q436 714 496 688T601 615T671 500T696 350Q696 267 671 200T602 86T497 12T364 -14Q293 -14 232 12T127 85T58 200T33 350Z"  />
<glyph unicode="P" horiz-adv-x="610" d="M320 376Q365 376 390 398T415 461Q415 501 390 523T320 546H238V376H320ZM324 700Q384 700 432 684T515 637T567 562T585 461Q585 405 567 361T515 285T433 238T324 221H238V0H74V700H324Z"  />
<glyph unicode="Q" horiz-adv-x="729" d="M364 147Q439 147 482 200T525 350Q525 447 482 500T364 553Q289 553 247 500T204 350Q204 254 246 201T364 147ZM282 -4Q227 9 181 39T102 116T51 221T33 350Q33 432 58 499T127 614T232 688T364 714Q436 714 496 688T601 615T671 500T696 350Q696 279 678 220T626 115T546 39T443 -5V-132H282V-4Z"  />
<glyph unicode="R" horiz-adv-x="641" d="M238 376H338Q359 376 374 383T398 403T413 430T418 461Q418 477 413 492T399 519T374 538T338 546H238V376ZM431 0L312 229H238V0H74V700H322Q382 700 431 683T516 635T570 559T589 461Q589 390 558 340T469 261L615 0H431Z"  />
<glyph unicode="S" horiz-adv-x="583" d="M398 481Q384 527 352 549T284 571Q250 571 231 556T212 520Q212 504 223 492T253 468T300 445T360 419Q395 404 430 385T494 339T541 280T559 202Q559 155 541 116T488 48T407 3T302 -14Q246 -14 201 1T120 45T60 112T20 198L177 240Q183 219 194 200T222 167T260 143T307 134Q346 134 366 151T387 194Q387 214 375 228T340 253T289 276T225 302Q192 318 160 336T102 379T61 435T45 513Q45 551 63 587T113 651T191 697T293 714Q341 714 383 700T459 660T517 600T554 524L398 481Z"  />
<glyph unicode="T" horiz-adv-x="572" d="M562 700V545H367V0H203V545H10V700H562Z"  />
<glyph unicode="U" horiz-adv-x="705" d="M642 700V295Q642 221 622 164T564 67T472 7T352 -14Q286 -14 233 6T142 66T84 163T63 295V700H228V296Q228 215 259 178T352 141Q414 141 445 178T477 296V700H642Z"  />
<glyph unicode="V" horiz-adv-x="677" d="M675 700L432 0H245L3 700H181L301 314Q320 252 328 213T338 174H339Q340 174 348 213T376 314L496 700H675Z"  />
<glyph unicode="W" horiz-adv-x="997" d="M975 700L785 0H624L528 323Q520 350 515 373T506 413T501 440T499 450H498Q498 450 496 440T491 413T483 373T469 323L373 0H212L23 700H199L273 370Q279 344 283 321T291 279T296 251T298 240H299Q299 240 301 250T308 279T319 320T334 370L421 645H576L664 370Q672 344 678 321T688 279T695 251T698 240H700Q700 240 702 250T707 279T714 320T724 370L798 700H975Z"  />
<glyph unicode="X" horiz-adv-x="657" d="M328 217Q328 217 322 206T309 180T293 150T280 125L205 0H10L231 360L23 700H217L294 563Q298 555 303 543T314 520T324 501T328 492H329Q329 492 333 500T342 520T354 543T364 563L441 700H635L426 360L647 0H453L378 125Q373 134 365 149T349 180T335 206T329 217H328Z"  />
<glyph unicode="Y" horiz-adv-x="681" d="M671 700L422 298V0H259V298L10 700H190L305 511Q322 482 330 464T340 446H341Q342 446 350 464T376 511L491 700H671Z"  />
<glyph unicode="Z" horiz-adv-x="659" d="M603 546L329 222Q306 195 287 175T268 153L269 152Q270 152 301 154T379 156H603V0H56V155L342 485Q351 495 362 506T382 526T397 541T404 547L402 548Q402 548 392 548T366 547T331 546T292 545H66V700H603V546Z"  />
<glyph unicode="[" horiz-adv-x="372" d="M238 3H362V-152H74V856H362V702H238V3Z"  />
<glyph unicode="\" horiz-adv-x="492" d="M489 0H319L3 700H161L489 0Z"  />
<glyph unicode="]" horiz-adv-x="374" d="M136 702H12V856H300V-152H12V3H136V702Z"  />
<glyph unicode="^" horiz-adv-x="589" d="M445 415L295 580L144 415L74 477L295 715L516 477L445 415Z"  />
<glyph unicode="_" horiz-adv-x="743" d="M669 0V-131H74V0H669Z"  />
<glyph unicode="`" horiz-adv-x="321" d="M5 831L64 942L287 816L236 729L5 831Z"  />
<glyph unicode="a" horiz-adv-x="677" d="M418 257L369 409Q363 428 358 447T349 481T342 505T339 514H338Q338 514 336 505T329 481T320 447T308 409L259 257H418ZM465 110H212L177 0H3L254 700H424L675 0H500L465 110Z"  />
<glyph unicode="b" horiz-adv-x="623" d="M338 139Q378 139 401 161T424 220Q424 258 400 279T338 301H238V139H338ZM324 428Q356 428 377 446T398 494Q398 524 377 542T324 561H238V428H324ZM349 700Q396 700 435 686T501 647T544 588T560 515Q560 488 552 465T530 425T501 396T471 380V379Q495 373 517 358T557 320T584 270T595 212Q595 166 580 128T535 61T458 16T349 0H74V700H349Z"  />
<glyph unicode="c" horiz-adv-x="693" d="M493 485Q471 520 436 536T364 553Q288 553 246 499T204 350Q204 254 248 202T365 149Q410 149 448 170T506 235L668 192Q630 96 550 41T364 -14Q293 -14 232 12T127 85T58 200T33 350Q33 432 58 499T127 614T232 688T364 714Q464 714 539 665T657 528L493 485Z"  />
<glyph unicode="d" horiz-adv-x="723" d="M349 155Q386 155 417 167T470 204T506 265T519 347Q519 395 506 431T469 493T414 532T346 545H238V155H349ZM339 700Q415 700 479 675T590 604T663 493T690 347Q690 267 664 203T592 94T481 25T341 0H74V700H339Z"  />
<glyph unicode="e" horiz-adv-x="615" d="M551 156V0H74V700H545V545H238V428H475V282H238V156H551Z"  />
<glyph unicode="f" horiz-adv-x="569" d="M238 545V406H468V256H238V0H74V700H538V545H238Z"  />
<glyph unicode="g" horiz-adv-x="724" d="M531 58Q506 29 459 8T360 -13Q290 -13 231 13T127 86T58 200T33 350Q33 432 58 499T127 614T232 688T364 714Q463 714 539 665T657 528L493 485Q470 520 436 536T364 553Q288 553 246 499T203 350Q203 302 215 264T251 200T305 160T376 146Q412 146 438 155T482 179T512 213T531 253V264H368V397H670V0H531Q531 35 531 46T532 58H531Z"  />
<glyph unicode="h" horiz-adv-x="706" d="M633 700V0H468V272H238V0H74V700H238V430H468V700H633Z"  />
<glyph unicode="i" horiz-adv-x="312" d="M74 0V700H238V0H74Z"  />
<glyph unicode="j" horiz-adv-x="639" d="M576 700V295Q576 221 555 164T496 67T403 7T283 -14Q233 -14 190 -1T112 36T51 93T11 165L171 208Q202 141 283 141Q344 141 378 179T412 285V700H576Z"  />
<glyph unicode="k" horiz-adv-x="693" d="M485 0L287 290L238 238V0H74V700H238V587Q238 509 237 475T236 440H237Q238 440 255 462T322 537L475 700H675L395 404L677 0H485Z"  />
<glyph unicode="l" horiz-adv-x="561" d="M541 156V0H74V700H238V156H541Z"  />
<glyph unicode="m" horiz-adv-x="801" d="M728 700V0H568V186Q568 301 573 362T577 424H576Q576 424 568 410T551 378T532 341T518 315L442 173H359L283 315Q280 323 271 341T252 377T234 410T226 424H224Q223 424 228 363T233 186V0H74V700H228L348 488Q381 429 390 405T400 381H401Q401 381 403 386T411 405T427 438T454 488L574 700H728Z"  />
<glyph unicode="n" horiz-adv-x="729" d="M655 700V0H505L367 212Q346 242 323 277T280 341T247 390T234 410H232Q232 410 232 392T234 339T236 259T237 155V0H74V700H224L370 479Q385 456 406 425T447 365T481 316T495 295H496Q496 295 496 315T495 368T493 446T492 540V700H655Z"  />
<glyph unicode="o" horiz-adv-x="729" d="M204 350Q204 254 246 201T364 147Q439 147 482 200T525 350Q525 447 482 500T364 553Q289 553 247 500T204 350ZM33 350Q33 432 58 499T127 614T232 688T364 714Q436 714 496 688T601 615T671 500T696 350Q696 267 671 200T602 86T497 12T364 -14Q293 -14 232 12T127 85T58 200T33 350Z"  />
<glyph unicode="p" horiz-adv-x="610" d="M320 376Q365 376 390 398T415 461Q415 501 390 523T320 546H238V376H320ZM324 700Q384 700 432 684T515 637T567 562T585 461Q585 405 567 361T515 285T433 238T324 221H238V0H74V700H324Z"  />
<glyph unicode="q" horiz-adv-x="729" d="M364 147Q439 147 482 200T525 350Q525 447 482 500T364 553Q289 553 247 500T204 350Q204 254 246 201T364 147ZM282 -4Q227 9 181 39T102 116T51 221T33 350Q33 432 58 499T127 614T232 688T364 714Q436 714 496 688T601 615T671 500T696 350Q696 279 678 220T626 115T546 39T443 -5V-132H282V-4Z"  />
<glyph unicode="r" horiz-adv-x="641" d="M238 376H338Q359 376 374 383T398 403T413 430T418 461Q418 477 413 492T399 519T374 538T338 546H238V376ZM431 0L312 229H238V0H74V700H322Q382 700 431 683T516 635T570 559T589 461Q589 390 558 340T469 261L615 0H431Z"  />
<glyph unicode="s" horiz-adv-x="583" d="M398 481Q384 527 352 549T284 571Q250 571 231 556T212 520Q212 504 223 492T253 468T300 445T360 419Q395 404 430 385T494 339T541 280T559 202Q559 155 541 116T488 48T407 3T302 -14Q246 -14 201 1T120 45T60 112T20 198L177 240Q183 219 194 200T222 167T260 143T307 134Q346 134 366 151T387 194Q387 214 375 228T340 253T289 276T225 302Q192 318 160 336T102 379T61 435T45 513Q45 551 63 587T113 651T191 697T293 714Q341 714 383 700T459 660T517 600T554 524L398 481Z"  />
<glyph unicode="t" horiz-adv-x="572" d="M562 700V545H367V0H203V545H10V700H562Z"  />
<glyph unicode="u" horiz-adv-x="705" d="M642 700V295Q642 221 622 164T564 67T472 7T352 -14Q286 -14 233 6T142 66T84 163T63 295V700H228V296Q228 215 259 178T352 141Q414 141 445 178T477 296V700H642Z"  />
<glyph unicode="v" horiz-adv-x="677" d="M675 700L432 0H245L3 700H181L301 314Q320 252 328 213T338 174H339Q340 174 348 213T376 314L496 700H675Z"  />
<glyph unicode="w" horiz-adv-x="997" d="M975 700L785 0H624L528 323Q520 350 515 373T506 413T501 440T499 450H498Q498 450 496 440T491 413T483 373T469 323L373 0H212L23 700H199L273 370Q279 344 283 321T291 279T296 251T298 240H299Q299 240 301 250T308 279T319 320T334 370L421 645H576L664 370Q672 344 678 321T688 279T695 251T698 240H700Q700 240 702 250T707 279T714 320T724 370L798 700H975Z"  />
<glyph unicode="x" horiz-adv-x="657" d="M328 217Q328 217 322 206T309 180T293 150T280 125L205 0H10L231 360L23 700H217L294 563Q298 555 303 543T314 520T324 501T328 492H329Q329 492 333 500T342 520T354 543T364 563L441 700H635L426 360L647 0H453L378 125Q373 134 365 149T349 180T335 206T329 217H328Z"  />
<glyph unicode="y" horiz-adv-x="681" d="M671 700L422 298V0H259V298L10 700H190L305 511Q322 482 330 464T340 446H341Q342 446 350 464T376 511L491 700H671Z"  />
<glyph unicode="z" horiz-adv-x="659" d="M603 546L329 222Q306 195 287 175T268 153L269 152Q270 152 301 154T379 156H603V0H56V155L342 485Q351 495 362 506T382 526T397 541T404 547L402 548Q402 548 392 548T366 547T331 546T292 545H66V700H603V546Z"  />
<glyph unicode="{" horiz-adv-x="436" d="M303 513Q303 462 296 431T279 382T260 358T249 352Q251 352 260 346T278 323T295 274T303 191V130Q303 80 314 51T342 6T381 -14T426 -19V-174Q354 -174 300 -154T210 -97T156 -10T138 101V198Q138 249 128 279T106 326Q92 345 74 352Q92 359 106 378Q118 395 128 425T138 506V603Q138 663 156 713T210 800T300 857T426 878V723Q403 723 381 719T342 698T314 653T303 574V513Z"  />
<glyph unicode="|" horiz-adv-x="277" d="M74 -74V775H204V-74H74Z"  />
<glyph unicode="}" horiz-adv-x="438" d="M135 574Q135 623 125 652T97 698T57 718T12 723V878Q84 878 138 858T228 801T282 714T300 603V506Q300 455 310 425T332 378Q346 359 364 352Q346 345 332 326Q320 309 310 279T300 198V101Q300 41 282 -9T228 -96T138 -153T12 -174V-19Q34 -19 56 -15T96 6T124 51T135 130V191Q135 242 142 273T159 322T178 346T189 352Q187 352 178 358T160 381T143 430T135 513V574Z"  />
<glyph unicode="~" horiz-adv-x="651" d="M614 397Q609 356 591 329T548 284T496 259T443 251Q410 251 382 260T328 281T281 302T241 312Q222 312 210 307T191 292T181 273T178 254L48 289Q53 329 71 357T113 402T165 426T218 434Q250 434 279 425T333 404T379 383T419 373Q438 373 450 379T469 393T478 412T481 432L614 397Z"  />
<glyph unicode="&#xA0;" horiz-adv-x="238" />
<glyph unicode="&#xA1;" horiz-adv-x="312" d="M238 485V0H74V485H238ZM238 700V543H74V700H238Z"  />
<glyph unicode="&#xA2;" horiz-adv-x="537" d="M512 240Q492 178 447 137T341 80V-13H214V82Q174 92 141 115T84 173T47 250T33 345Q33 396 46 439T84 517T141 574T214 608V713H341V610Q398 596 440 559T505 464L366 428Q350 455 330 466T280 478Q232 478 207 445T181 345Q181 279 207 246T281 212Q315 212 337 227T373 278L512 240Z"  />
<glyph unicode="&#xA3;" horiz-adv-x="616" d="M260 150Q261 150 302 153T414 156H581V0H74V156Q116 164 126 187T132 256L130 273H75V402H118L110 486Q105 533 121 574T168 645T240 694T329 714Q364 715 402 705T476 671T540 611T581 519L442 481Q431 517 406 543T342 568Q307 566 288 541T274 475L281 402H452V273H294L295 261Q299 220 288 192T259 151L260 150Z"  />
<glyph unicode="&#xA4;" horiz-adv-x="638" d="M318 467Q270 467 239 434T207 341Q207 281 238 248T318 214Q367 214 399 247T431 341Q431 400 399 433T318 467ZM523 634L604 553L538 486Q578 423 578 338Q578 296 567 257T535 185L599 122L518 41L454 105Q423 86 389 76T317 65Q245 65 183 104L120 41L39 122L102 184Q82 218 71 257T59 338Q59 380 69 417T99 487L33 553L114 634L179 569Q241 611 317 611Q355 611 390 600T458 569L523 634Z"  />
<glyph unicode="&#xA5;" horiz-adv-x="680" d="M530 472H614V366H464L444 334H614V228H422V0H259V228H68V334H237L217 366H68V472H151L10 700H190L305 511Q322 482 330 464T340 446H341Q342 446 350 464T376 511L491 700H671L530 472Z"  />
<glyph unicode="&#xA6;" horiz-adv-x="277" d="M204 216V-74H74V216H204ZM204 775V495H74V775H204Z"  />
<glyph unicode="&#xA7;" horiz-adv-x="506" d="M172 369Q172 355 182 346T209 330T249 317T298 301Q318 306 330 317T342 348Q342 364 333 374T307 391T268 404T222 418Q200 413 186 401T172 369ZM342 551Q331 583 304 598T246 614Q218 614 202 604T186 579Q186 565 195 556T221 540T261 525T311 508Q341 497 370 484T424 452T462 411T477 356Q477 319 457 295T399 258Q434 237 458 209T482 140Q482 107 466 79T421 30T352 -2T261 -14Q166 -14 106 26T20 132L153 167Q164 138 192 115T264 91Q299 91 316 103T334 133Q334 148 323 158T294 177T250 194T195 213Q166 225 138 237T88 267T53 307T39 362Q39 394 59 419T118 462Q86 480 65 506T43 573Q43 599 58 624T100 670T166 702T253 714Q333 714 391 678T471 586L342 551Z"  />
<glyph unicode="&#xA8;" horiz-adv-x="438" d="M329 768Q299 768 279 789T258 840Q258 871 278 892T329 913Q358 913 379 892T400 840Q400 810 379 789T329 768ZM76 768Q46 768 25 789T4 840Q4 871 25 892T76 913Q105 913 125 892T146 840Q146 810 126 789T76 768Z"  />
<glyph unicode="&#xA9;" horiz-adv-x="763" d="M526 285Q511 237 472 210T382 182Q349 182 321 194T273 228T241 281T229 350Q229 388 240 419T272 472T321 507T382 519Q430 519 467 494T522 425L434 401Q415 431 382 431Q353 431 338 411T322 350Q322 311 338 291T382 270Q422 270 438 309L526 285ZM381 606Q331 606 289 587T216 534T168 453T151 350Q151 295 168 249T215 169T288 116T381 97Q431 97 473 115T546 168T594 248T612 350Q612 406 595 453T547 534T474 587T381 606ZM381 714Q454 714 518 687T629 612T703 496T730 350Q730 271 703 204T629 89T518 13T381 -14Q307 -14 244 13T134 88T60 204T33 350Q33 429 60 496T133 611T243 687T381 714Z"  />
<glyph unicode="&#xAA;" horiz-adv-x="352" d="M20 313H332V214H20V313ZM175 613Q174 613 171 588T157 526L150 500H200L193 526Q184 563 181 588T176 613H175ZM118 375H20L128 708H223L332 375H232L219 427H131L118 375Z"  />
<glyph unicode="&#xAB;" horiz-adv-x="747" d="M289 585L382 499L243 352L383 204L288 118L74 352L289 585ZM580 585L673 499L534 352L674 204L579 118L365 352L580 585Z"  />
<glyph unicode="&#xAD;" horiz-adv-x="568" d="M500 422V287H74V422H500Z"  />
<glyph unicode="&#xAE;" horiz-adv-x="763" d="M353 368H392Q407 368 415 378T423 402Q423 416 415 426T392 436H353V368ZM384 517Q442 517 476 487T511 405Q511 372 497 349T457 312L529 184H435L379 296H353V184H265V517H384ZM381 97Q431 97 473 115T546 168T594 248T612 350Q612 406 595 453T547 534T474 587T381 606Q331 606 289 587T216 534T168 453T151 350Q151 295 168 249T215 169T288 116T381 97ZM381 714Q454 714 518 687T629 612T703 496T730 350Q730 271 703 204T629 89T518 13T381 -14Q307 -14 244 13T134 88T60 204T33 350Q33 429 60 496T133 611T243 687T381 714Z"  />
<glyph unicode="&#xAF;" horiz-adv-x="326" d="M309 795V667H-15V795H309Z"  />
<glyph unicode="&#xB0;" horiz-adv-x="326" d="M163 664Q186 664 201 680T217 718Q217 741 202 757T163 773Q143 773 128 757T112 718Q112 696 127 680T163 664ZM163 569Q133 569 107 580T60 612T28 659T16 717Q16 748 27 775T59 822T106 854T163 866Q194 866 220 854T267 822T298 775T310 717Q310 686 299 659T267 612T221 581T163 569Z"  />
<glyph unicode="&#xB1;" horiz-adv-x="651" d="M113 126H539V-9H113V126ZM539 422V287H396V195H256V287H113V422H255V572H395V422H539Z"  />
<glyph unicode="&#xB2;" horiz-adv-x="321" d="M149 558Q150 558 177 562T252 566H296V475H21V545L134 650Q161 675 179 694T198 740Q198 755 187 765T160 775Q147 775 138 770T123 757T114 740T108 723L18 746Q22 767 33 789T63 829T106 858T161 870Q191 870 216 860T260 833T289 791T299 740Q299 701 280 673T239 625Q230 617 221 609T200 593Q179 578 164 570T148 560L149 558Z"  />
<glyph unicode="&#xB3;" horiz-adv-x="330" d="M23 757Q34 811 72 840T168 870Q196 870 220 862T263 839T291 803T302 756Q302 736 294 721T275 695T252 680T229 674V673Q242 673 256 668T282 652T301 626T309 589Q309 563 299 541T269 502T225 476T168 467Q139 467 114 476T69 500T36 535T18 579L107 603Q112 583 125 570T167 556Q187 556 199 567T212 595Q212 614 199 625T165 636H132V710H164Q181 710 193 721T205 748Q205 763 194 773T165 783Q143 783 130 772T109 735L23 757Z"  />
<glyph unicode="&#xB4;" horiz-adv-x="321" d="M287 831L55 729L5 816L228 942L287 831Z"  />
<glyph unicode="&#xB6;" horiz-adv-x="784" d="M710 700V0H546V542H466V0H311V281H274Q160 281 97 336T33 491Q33 590 96 645T274 700H710Z"  />
<glyph unicode="&#xB7;" horiz-adv-x="259" d="M130 279Q98 279 76 302T53 357Q53 389 75 411T130 434Q162 434 184 412T206 357Q206 325 184 302T130 279Z"  />
<glyph unicode="&#xB8;" horiz-adv-x="275" d="M134 -56Q154 -56 173 -63T206 -84T230 -117T239 -162Q239 -192 230 -213T204 -247T167 -266T123 -272H8L41 -186H122Q136 -186 142 -179T149 -163Q149 -152 142 -146T122 -139H18L65 0H155L134 -56Z"  />
<glyph unicode="&#xB9;" horiz-adv-x="254" d="M222 862V475H120V652Q120 682 123 706T127 732H126Q124 732 117 720T94 694L76 678L11 735L150 862H222Z"  />
<glyph unicode="&#xBA;" horiz-adv-x="338" d="M318 313V214H20V313H318ZM106 540Q106 502 124 483T169 463Q196 463 214 482T232 540Q232 579 214 598T169 618Q142 618 124 599T106 540ZM10 540Q10 579 22 611T55 665T106 700T169 712Q202 712 231 700T281 666T315 611T328 540Q328 501 316 470T282 416T231 381T169 369Q135 369 106 381T56 415T22 469T10 540Z"  />
<glyph unicode="&#xBB;" horiz-adv-x="747" d="M674 352L460 118L365 204L505 352L366 499L459 585L674 352ZM382 352L168 118L74 204L213 352L74 499L167 585L382 352Z"  />
<glyph unicode="&#xBC;" horiz-adv-x="708" d="M558 151V205Q558 221 559 235T561 251H560Q559 251 554 243T542 226L500 173Q492 162 487 157T482 150L483 148Q485 148 497 149T525 151H558ZM687 65H650V0H558V65H380V138L567 387H650V153H687V65ZM640 700L175 0H70L536 700H640ZM76 516L11 573L150 700H222V313H120V490Q120 520 123 544T127 570H126Q124 570 117 558T94 532L76 516Z"  />
<glyph unicode="&#xBD;" horiz-adv-x="741" d="M570 83Q571 83 598 87T673 91H717V0H442V70L555 175Q582 200 600 219T619 265Q619 280 608 290T581 300Q568 300 559 295T544 282T535 265T529 248L439 271Q443 292 454 314T484 354T527 383T582 395Q612 395 637 385T681 358T710 316T720 265Q720 226 701 198T660 150Q651 142 642 134T621 118Q600 103 585 95T569 85L570 83ZM536 700H640L175 0H70L536 700ZM222 700V313H120V490Q120 520 123 544T127 570H126Q124 570 117 558T94 532L76 516L11 573L150 700H222Z"  />
<glyph unicode="&#xBE;" horiz-adv-x="759" d="M608 151V205Q608 221 609 235T611 251H610Q609 251 604 243T592 226L550 173Q542 162 537 157T532 150L533 148Q535 148 547 149T575 151H608ZM737 65H700V0H608V65H430V138L617 387H700V153H737V65ZM691 700L226 0H121L587 700H691ZM229 511Q242 511 256 506T282 490T301 464T309 427Q309 401 299 379T269 340T225 314T168 305Q139 305 114 314T69 338T36 373T18 417L107 441Q112 421 125 408T167 394Q187 394 199 405T212 433Q212 452 199 463T165 474H132V548H164Q181 548 193 559T205 586Q205 601 194 611T165 621Q143 621 130 610T109 573L23 595Q34 649 72 678T168 708Q196 708 220 700T263 677T291 641T302 594Q302 574 294 559T275 533T252 518T229 512V511Z"  />
<glyph unicode="&#xBF;" horiz-adv-x="562" d="M369 357Q325 329 293 309T241 271T211 236T201 200Q201 175 220 153T281 130Q326 130 351 153T391 219L529 181Q506 87 438 37T272 -14Q217 -14 173 1T98 45T51 111T34 193Q34 234 47 265T84 323T138 370T205 414V484H369V357ZM369 543H205V700H369V543Z"  />
<glyph unicode="&#xC0;" horiz-adv-x="677" d="M418 257L369 409Q363 428 358 447T349 481T342 505T339 514H338Q338 514 336 505T329 481T320 447T308 409L259 257H418ZM465 110H212L177 0H3L254 700H424L675 0H500L465 110ZM383 729L152 831L211 942L434 816L383 729Z"  />
<glyph unicode="&#xC1;" horiz-adv-x="677" d="M418 257L369 409Q363 428 358 447T349 481T342 505T339 514H338Q338 514 336 505T329 481T320 447T308 409L259 257H418ZM465 110H212L177 0H3L254 700H424L675 0H500L465 110ZM268 729L218 816L441 942L500 831L268 729Z"  />
<glyph unicode="&#xC2;" horiz-adv-x="677" d="M418 257L369 409Q363 428 358 447T349 481T342 505T339 514H338Q338 514 336 505T329 481T320 447T308 409L259 257H418ZM465 110H212L177 0H3L254 700H424L675 0H500L465 110ZM227 729L148 809L336 974L522 809L445 729L336 822L227 729Z"  />
<glyph unicode="&#xC3;" horiz-adv-x="677" d="M418 257L369 409Q363 428 358 447T349 481T342 505T339 514H338Q338 514 336 505T329 481T320 447T308 409L259 257H418ZM465 110H212L177 0H3L254 700H424L675 0H500L465 110ZM574 895Q574 862 563 834T531 786T484 754T423 742Q396 742 375 751T337 771T306 792T275 801Q255 801 244 789T233 759H109Q109 792 120 820T152 868T199 900T259 912Q287 912 308 903T346 883T377 862T408 853Q428 853 438 865T449 895H574Z"  />
<glyph unicode="&#xC4;" horiz-adv-x="677" d="M418 257L369 409Q363 428 358 447T349 481T342 505T339 514H338Q338 514 336 505T329 481T320 447T308 409L259 257H418ZM465 110H212L177 0H3L254 700H424L675 0H500L465 110ZM462 768Q432 768 412 789T392 840Q392 871 412 892T462 913Q492 913 512 892T533 840Q533 810 513 789T462 768ZM209 768Q179 768 159 789T138 840Q138 871 158 892T209 913Q238 913 258 892T279 840Q279 810 259 789T209 768Z"  />
<glyph unicode="&#xC5;" horiz-adv-x="677" d="M418 257L369 409Q363 428 358 447T349 481T342 505T339 514H338Q338 514 336 505T329 481T320 447T308 409L259 257H418ZM338 881Q317 881 302 865T286 825Q286 803 301 787T338 771Q361 771 376 787T391 825Q391 849 376 865T338 881ZM465 110H212L177 0H3L254 700H258Q227 720 209 753T190 825Q190 855 201 882T233 929T281 961T338 973Q369 973 395 962T442 930T473 882T485 825Q485 786 467 753T418 700H424L675 0H500L465 110Z"  />
<glyph unicode="&#xC6;" horiz-adv-x="955" d="M420 545H357Q357 545 352 531T340 494T325 445T308 393L262 255H420V545ZM891 156V0H420V110H215L178 0H3L261 700H885V545H579V428H815V282H579V156H891Z"  />
<glyph unicode="&#xC7;" horiz-adv-x="693" d="M668 192Q634 104 565 51T402 -12L386 -56Q406 -56 425 -63T458 -84T482 -117T491 -162Q491 -192 482 -213T456 -247T419 -266T375 -272H260L293 -186H374Q388 -186 394 -179T401 -163Q401 -152 394 -146T374 -139H270L313 -10Q252 -1 201 28T112 103T54 212T33 350Q33 432 58 499T127 614T232 688T364 714Q464 714 539 665T657 528L493 485Q471 520 436 536T364 553Q288 553 246 499T204 350Q204 254 248 202T365 149Q410 149 448 170T506 235L668 192Z"  />
<glyph unicode="&#xC8;" horiz-adv-x="615" d="M551 156V0H74V700H545V545H238V428H475V282H238V156H551ZM368 729L137 831L196 942L419 816L368 729Z"  />
<glyph unicode="&#xC9;" horiz-adv-x="615" d="M551 156V0H74V700H545V545H238V428H475V282H238V156H551ZM253 729L203 816L426 942L485 831L253 729Z"  />
<glyph unicode="&#xCA;" horiz-adv-x="615" d="M551 156V0H74V700H545V545H238V428H475V282H238V156H551ZM212 729L133 809L321 974L507 809L430 729L321 822L212 729Z"  />
<glyph unicode="&#xCB;" horiz-adv-x="615" d="M551 156V0H74V700H545V545H238V428H475V282H238V156H551ZM447 768Q417 768 397 789T377 840Q377 871 397 892T447 913Q477 913 497 892T518 840Q518 810 498 789T447 768ZM194 768Q164 768 144 789T123 840Q123 871 143 892T194 913Q223 913 243 892T264 840Q264 810 244 789T194 768Z"  />
<glyph unicode="&#xCC;" horiz-adv-x="312" d="M74 0V700H238V0H74ZM-30 831L29 942L252 816L201 729L-30 831Z"  />
<glyph unicode="&#xCD;" horiz-adv-x="312" d="M74 0V700H238V0H74ZM318 831L86 729L36 816L259 942L318 831Z"  />
<glyph unicode="&#xCE;" horiz-adv-x="312" d="M74 0V700H238V0H74ZM154 974L340 809L263 729L154 822L45 729L-34 809L154 974Z"  />
<glyph unicode="&#xCF;" horiz-adv-x="312" d="M74 0V700H238V0H74ZM280 768Q250 768 230 789T210 840Q210 871 230 892T280 913Q310 913 330 892T351 840Q351 810 331 789T280 768ZM27 768Q-3 768 -23 789T-44 840Q-44 871 -24 892T27 913Q56 913 76 892T97 840Q97 810 77 789T27 768Z"  />
<glyph unicode="&#xD0;" horiz-adv-x="734" d="M360 155Q397 155 428 167T481 204T517 265T530 347Q530 395 517 431T480 493T425 532T357 545H249V429H351V279H249V155H360ZM350 700Q426 700 490 675T601 604T674 493T701 347Q701 267 675 203T603 94T492 25T352 0H85V279H33V429H85V700H350Z"  />
<glyph unicode="&#xD1;" horiz-adv-x="729" d="M655 700V0H505L367 212Q346 242 323 277T280 341T247 390T234 410H232Q232 410 232 392T234 339T236 259T237 155V0H74V700H224L370 479Q385 456 406 425T447 365T481 316T495 295H496Q496 295 496 315T495 368T493 446T492 540V700H655ZM600 895Q600 862 589 834T557 786T510 754T449 742Q422 742 401 751T363 771T332 792T301 801Q281 801 270 789T259 759H135Q135 792 146 820T178 868T225 900T285 912Q313 912 334 903T372 883T403 862T434 853Q454 853 464 865T475 895H600Z"  />
<glyph unicode="&#xD2;" horiz-adv-x="729" d="M204 350Q204 254 246 201T364 147Q439 147 482 200T525 350Q525 447 482 500T364 553Q289 553 247 500T204 350ZM33 350Q33 432 58 499T127 614T232 688T364 714Q436 714 496 688T601 615T671 500T696 350Q696 267 671 200T602 86T497 12T364 -14Q293 -14 232 12T127 85T58 200T33 350ZM182 831L241 942L464 816L413 729L182 831Z"  />
<glyph unicode="&#xD3;" horiz-adv-x="729" d="M204 350Q204 254 246 201T364 147Q439 147 482 200T525 350Q525 447 482 500T364 553Q289 553 247 500T204 350ZM33 350Q33 432 58 499T127 614T232 688T364 714Q436 714 496 688T601 615T671 500T696 350Q696 267 671 200T602 86T497 12T364 -14Q293 -14 232 12T127 85T58 200T33 350ZM530 831L298 729L248 816L471 942L530 831Z"  />
<glyph unicode="&#xD4;" horiz-adv-x="729" d="M204 350Q204 254 246 201T364 147Q439 147 482 200T525 350Q525 447 482 500T364 553Q289 553 247 500T204 350ZM33 350Q33 432 58 499T127 614T232 688T364 714Q436 714 496 688T601 615T671 500T696 350Q696 267 671 200T602 86T497 12T364 -14Q293 -14 232 12T127 85T58 200T33 350ZM366 974L552 809L475 729L366 822L257 729L178 809L366 974Z"  />
<glyph unicode="&#xD5;" horiz-adv-x="729" d="M204 350Q204 254 246 201T364 147Q439 147 482 200T525 350Q525 447 482 500T364 553Q289 553 247 500T204 350ZM33 350Q33 432 58 499T127 614T232 688T364 714Q436 714 496 688T601 615T671 500T696 350Q696 267 671 200T602 86T497 12T364 -14Q293 -14 232 12T127 85T58 200T33 350ZM604 895Q604 862 593 834T561 786T514 754T453 742Q426 742 405 751T367 771T336 792T305 801Q285 801 274 789T263 759H139Q139 792 150 820T182 868T229 900T289 912Q317 912 338 903T376 883T407 862T438 853Q458 853 468 865T479 895H604Z"  />
<glyph unicode="&#xD6;" horiz-adv-x="729" d="M204 350Q204 254 246 201T364 147Q439 147 482 200T525 350Q525 447 482 500T364 553Q289 553 247 500T204 350ZM33 350Q33 432 58 499T127 614T232 688T364 714Q436 714 496 688T601 615T671 500T696 350Q696 267 671 200T602 86T497 12T364 -14Q293 -14 232 12T127 85T58 200T33 350ZM492 768Q462 768 442 789T422 840Q422 871 442 892T492 913Q522 913 542 892T563 840Q563 810 543 789T492 768ZM239 768Q209 768 189 789T168 840Q168 871 188 892T239 913Q268 913 288 892T309 840Q309 810 289 789T239 768Z"  />
<glyph unicode="&#xD7;" horiz-adv-x="651" d="M539 470L427 351L538 233L431 131L326 244L221 133L114 235L224 351L113 468L221 570L326 459L431 572L539 470Z"  />
<glyph unicode="&#xD8;" horiz-adv-x="729" d="M315 154Q336 147 364 147Q439 147 482 200T525 350Q525 398 514 437L315 154ZM416 545Q390 553 364 553Q289 553 247 500T204 350Q204 299 216 260L416 545ZM622 591Q657 544 676 484T696 350Q696 267 671 200T602 86T497 12T364 -14Q286 -14 219 18L188 -27L72 55L109 107Q73 154 53 215T33 350Q33 432 58 499T127 614T232 688T364 714Q446 714 512 681L544 727L661 647L622 591Z"  />
<glyph unicode="&#xD9;" horiz-adv-x="705" d="M642 700V295Q642 221 622 164T564 67T472 7T352 -14Q286 -14 233 6T142 66T84 163T63 295V700H228V296Q228 215 259 178T352 141Q414 141 445 178T477 296V700H642ZM167 831L226 942L449 816L398 729L167 831Z"  />
<glyph unicode="&#xDA;" horiz-adv-x="705" d="M642 700V295Q642 221 622 164T564 67T472 7T352 -14Q286 -14 233 6T142 66T84 163T63 295V700H228V296Q228 215 259 178T352 141Q414 141 445 178T477 296V700H642ZM515 831L283 729L233 816L456 942L515 831Z"  />
<glyph unicode="&#xDB;" horiz-adv-x="705" d="M642 700V295Q642 221 622 164T564 67T472 7T352 -14Q286 -14 233 6T142 66T84 163T63 295V700H228V296Q228 215 259 178T352 141Q414 141 445 178T477 296V700H642ZM351 974L537 809L460 729L351 822L242 729L163 809L351 974Z"  />
<glyph unicode="&#xDC;" horiz-adv-x="705" d="M642 700V295Q642 221 622 164T564 67T472 7T352 -14Q286 -14 233 6T142 66T84 163T63 295V700H228V296Q228 215 259 178T352 141Q414 141 445 178T477 296V700H642ZM477 768Q447 768 427 789T407 840Q407 871 427 892T477 913Q507 913 527 892T548 840Q548 810 528 789T477 768ZM224 768Q194 768 174 789T153 840Q153 871 173 892T224 913Q253 913 273 892T294 840Q294 810 274 789T224 768Z"  />
<glyph unicode="&#xDD;" horiz-adv-x="681" d="M671 700L422 298V0H259V298L10 700H190L305 511Q322 482 330 464T340 446H341Q342 446 350 464T376 511L491 700H671ZM502 831L270 729L220 816L443 942L502 831Z"  />
<glyph unicode="&#xDE;" horiz-adv-x="613" d="M325 265Q369 265 392 288T415 350Q415 388 392 411T325 435H238V265H325ZM321 590Q381 590 429 573T512 523T566 447T585 350Q585 297 566 253T513 178T430 129T321 111H238V0H74V700H238V590H321Z"  />
<glyph unicode="&#xDF;" horiz-adv-x="790" d="M701 700L605 518Q595 499 586 481T570 449T558 426T553 417L555 416H559Q599 416 635 400T698 355T741 290T757 212Q757 165 741 124T693 52T618 4T520 -14Q439 -14 379 23T287 120L442 162Q457 144 473 135T513 126Q555 126 574 150T594 211Q594 247 570 270T501 294H396V416L426 479Q438 505 448 525T459 546L458 547Q457 547 436 546T392 545H238V0H74V700H701Z"  />
<glyph unicode="&#xE0;" horiz-adv-x="677" d="M418 257L369 409Q363 428 358 447T349 481T342 505T339 514H338Q338 514 336 505T329 481T320 447T308 409L259 257H418ZM465 110H212L177 0H3L254 700H424L675 0H500L465 110ZM383 729L152 831L211 942L434 816L383 729Z"  />
<glyph unicode="&#xE1;" horiz-adv-x="677" d="M418 257L369 409Q363 428 358 447T349 481T342 505T339 514H338Q338 514 336 505T329 481T320 447T308 409L259 257H418ZM465 110H212L177 0H3L254 700H424L675 0H500L465 110ZM268 729L218 816L441 942L500 831L268 729Z"  />
<glyph unicode="&#xE2;" horiz-adv-x="677" d="M418 257L369 409Q363 428 358 447T349 481T342 505T339 514H338Q338 514 336 505T329 481T320 447T308 409L259 257H418ZM465 110H212L177 0H3L254 700H424L675 0H500L465 110ZM227 729L148 809L336 974L522 809L445 729L336 822L227 729Z"  />
<glyph unicode="&#xE3;" horiz-adv-x="677" d="M418 257L369 409Q363 428 358 447T349 481T342 505T339 514H338Q338 514 336 505T329 481T320 447T308 409L259 257H418ZM465 110H212L177 0H3L254 700H424L675 0H500L465 110ZM574 895Q574 862 563 834T531 786T484 754T423 742Q396 742 375 751T337 771T306 792T275 801Q255 801 244 789T233 759H109Q109 792 120 820T152 868T199 900T259 912Q287 912 308 903T346 883T377 862T408 853Q428 853 438 865T449 895H574Z"  />
<glyph unicode="&#xE4;" horiz-adv-x="677" d="M418 257L369 409Q363 428 358 447T349 481T342 505T339 514H338Q338 514 336 505T329 481T320 447T308 409L259 257H418ZM465 110H212L177 0H3L254 700H424L675 0H500L465 110ZM462 768Q432 768 412 789T392 840Q392 871 412 892T462 913Q492 913 512 892T533 840Q533 810 513 789T462 768ZM209 768Q179 768 159 789T138 840Q138 871 158 892T209 913Q238 913 258 892T279 840Q279 810 259 789T209 768Z"  />
<glyph unicode="&#xE5;" horiz-adv-x="677" d="M418 257L369 409Q363 428 358 447T349 481T342 505T339 514H338Q338 514 336 505T329 481T320 447T308 409L259 257H418ZM338 881Q317 881 302 865T286 825Q286 803 301 787T338 771Q361 771 376 787T391 825Q391 849 376 865T338 881ZM465 110H212L177 0H3L254 700H258Q227 720 209 753T190 825Q190 855 201 882T233 929T281 961T338 973Q369 973 395 962T442 930T473 882T485 825Q485 786 467 753T418 700H424L675 0H500L465 110Z"  />
<glyph unicode="&#xE6;" horiz-adv-x="955" d="M420 545H357Q357 545 352 531T340 494T325 445T308 393L262 255H420V545ZM891 156V0H420V110H215L178 0H3L261 700H885V545H579V428H815V282H579V156H891Z"  />
<glyph unicode="&#xE7;" horiz-adv-x="693" d="M668 192Q634 104 565 51T402 -12L386 -56Q406 -56 425 -63T458 -84T482 -117T491 -162Q491 -192 482 -213T456 -247T419 -266T375 -272H260L293 -186H374Q388 -186 394 -179T401 -163Q401 -152 394 -146T374 -139H270L313 -10Q252 -1 201 28T112 103T54 212T33 350Q33 432 58 499T127 614T232 688T364 714Q464 714 539 665T657 528L493 485Q471 520 436 536T364 553Q288 553 246 499T204 350Q204 254 248 202T365 149Q410 149 448 170T506 235L668 192Z"  />
<glyph unicode="&#xE8;" horiz-adv-x="615" d="M551 156V0H74V700H545V545H238V428H475V282H238V156H551ZM368 729L137 831L196 942L419 816L368 729Z"  />
<glyph unicode="&#xE9;" horiz-adv-x="615" d="M551 156V0H74V700H545V545H238V428H475V282H238V156H551ZM253 729L203 816L426 942L485 831L253 729Z"  />
<glyph unicode="&#xEA;" horiz-adv-x="615" d="M551 156V0H74V700H545V545H238V428H475V282H238V156H551ZM212 729L133 809L321 974L507 809L430 729L321 822L212 729Z"  />
<glyph unicode="&#xEB;" horiz-adv-x="615" d="M551 156V0H74V700H545V545H238V428H475V282H238V156H551ZM447 768Q417 768 397 789T377 840Q377 871 397 892T447 913Q477 913 497 892T518 840Q518 810 498 789T447 768ZM194 768Q164 768 144 789T123 840Q123 871 143 892T194 913Q223 913 243 892T264 840Q264 810 244 789T194 768Z"  />
<glyph unicode="&#xEC;" horiz-adv-x="312" d="M74 0V700H238V0H74ZM-30 831L29 942L252 816L201 729L-30 831Z"  />
<glyph unicode="&#xED;" horiz-adv-x="312" d="M74 0V700H238V0H74ZM318 831L86 729L36 816L259 942L318 831Z"  />
<glyph unicode="&#xEE;" horiz-adv-x="312" d="M74 0V700H238V0H74ZM154 974L340 809L263 729L154 822L45 729L-34 809L154 974Z"  />
<glyph unicode="&#xEF;" horiz-adv-x="312" d="M74 0V700H238V0H74ZM280 768Q250 768 230 789T210 840Q210 871 230 892T280 913Q310 913 330 892T351 840Q351 810 331 789T280 768ZM27 768Q-3 768 -23 789T-44 840Q-44 871 -24 892T27 913Q56 913 76 892T97 840Q97 810 77 789T27 768Z"  />
<glyph unicode="&#xF0;" horiz-adv-x="734" d="M360 155Q397 155 428 167T481 204T517 265T530 347Q530 395 517 431T480 493T425 532T357 545H249V429H351V279H249V155H360ZM350 700Q426 700 490 675T601 604T674 493T701 347Q701 267 675 203T603 94T492 25T352 0H85V279H33V429H85V700H350Z"  />
<glyph unicode="&#xF1;" horiz-adv-x="729" d="M655 700V0H505L367 212Q346 242 323 277T280 341T247 390T234 410H232Q232 410 232 392T234 339T236 259T237 155V0H74V700H224L370 479Q385 456 406 425T447 365T481 316T495 295H496Q496 295 496 315T495 368T493 446T492 540V700H655ZM600 895Q600 862 589 834T557 786T510 754T449 742Q422 742 401 751T363 771T332 792T301 801Q281 801 270 789T259 759H135Q135 792 146 820T178 868T225 900T285 912Q313 912 334 903T372 883T403 862T434 853Q454 853 464 865T475 895H600Z"  />
<glyph unicode="&#xF2;" horiz-adv-x="729" d="M204 350Q204 254 246 201T364 147Q439 147 482 200T525 350Q525 447 482 500T364 553Q289 553 247 500T204 350ZM33 350Q33 432 58 499T127 614T232 688T364 714Q436 714 496 688T601 615T671 500T696 350Q696 267 671 200T602 86T497 12T364 -14Q293 -14 232 12T127 85T58 200T33 350ZM181 831L240 942L463 816L412 729L181 831Z"  />
<glyph unicode="&#xF3;" horiz-adv-x="729" d="M204 350Q204 254 246 201T364 147Q439 147 482 200T525 350Q525 447 482 500T364 553Q289 553 247 500T204 350ZM33 350Q33 432 58 499T127 614T232 688T364 714Q436 714 496 688T601 615T671 500T696 350Q696 267 671 200T602 86T497 12T364 -14Q293 -14 232 12T127 85T58 200T33 350ZM529 831L297 729L247 816L470 942L529 831Z"  />
<glyph unicode="&#xF4;" horiz-adv-x="729" d="M204 350Q204 254 246 201T364 147Q439 147 482 200T525 350Q525 447 482 500T364 553Q289 553 247 500T204 350ZM33 350Q33 432 58 499T127 614T232 688T364 714Q436 714 496 688T601 615T671 500T696 350Q696 267 671 200T602 86T497 12T364 -14Q293 -14 232 12T127 85T58 200T33 350ZM365 974L551 809L474 729L365 822L256 729L177 809L365 974Z"  />
<glyph unicode="&#xF5;" horiz-adv-x="729" d="M204 350Q204 254 246 201T364 147Q439 147 482 200T525 350Q525 447 482 500T364 553Q289 553 247 500T204 350ZM33 350Q33 432 58 499T127 614T232 688T364 714Q436 714 496 688T601 615T671 500T696 350Q696 267 671 200T602 86T497 12T364 -14Q293 -14 232 12T127 85T58 200T33 350ZM603 895Q603 862 592 834T560 786T513 754T452 742Q425 742 404 751T366 771T335 792T304 801Q284 801 273 789T262 759H138Q138 792 149 820T181 868T228 900T288 912Q316 912 337 903T375 883T406 862T437 853Q457 853 467 865T478 895H603Z"  />
<glyph unicode="&#xF6;" horiz-adv-x="729" d="M204 350Q204 254 246 201T364 147Q439 147 482 200T525 350Q525 447 482 500T364 553Q289 553 247 500T204 350ZM33 350Q33 432 58 499T127 614T232 688T364 714Q436 714 496 688T601 615T671 500T696 350Q696 267 671 200T602 86T497 12T364 -14Q293 -14 232 12T127 85T58 200T33 350ZM491 768Q461 768 441 789T421 840Q421 871 441 892T491 913Q521 913 541 892T562 840Q562 810 542 789T491 768ZM238 768Q208 768 188 789T167 840Q167 871 187 892T238 913Q267 913 287 892T308 840Q308 810 288 789T238 768Z"  />
<glyph unicode="&#xF7;" horiz-adv-x="651" d="M321 51Q289 51 267 74T244 129Q244 161 266 183T321 206Q353 206 375 184T397 129Q397 97 375 74T321 51ZM539 421V286H113V421H539ZM321 502Q289 502 267 525T244 580Q244 612 266 634T321 657Q353 657 375 635T397 580Q397 548 375 525T321 502Z"  />
<glyph unicode="&#xF8;" horiz-adv-x="729" d="M315 154Q336 147 364 147Q439 147 482 200T525 350Q525 398 514 437L315 154ZM416 545Q390 553 364 553Q289 553 247 500T204 350Q204 299 216 260L416 545ZM622 591Q657 544 676 484T696 350Q696 267 671 200T602 86T497 12T364 -14Q286 -14 219 18L188 -27L72 55L109 107Q73 154 53 215T33 350Q33 432 58 499T127 614T232 688T364 714Q446 714 512 681L544 727L661 647L622 591Z"  />
<glyph unicode="&#xF9;" horiz-adv-x="705" d="M642 700V295Q642 221 622 164T564 67T472 7T352 -14Q286 -14 233 6T142 66T84 163T63 295V700H228V296Q228 215 259 178T352 141Q414 141 445 178T477 296V700H642ZM167 831L226 942L449 816L398 729L167 831Z"  />
<glyph unicode="&#xFA;" horiz-adv-x="705" d="M642 700V295Q642 221 622 164T564 67T472 7T352 -14Q286 -14 233 6T142 66T84 163T63 295V700H228V296Q228 215 259 178T352 141Q414 141 445 178T477 296V700H642ZM515 831L283 729L233 816L456 942L515 831Z"  />
<glyph unicode="&#xFB;" horiz-adv-x="705" d="M642 700V295Q642 221 622 164T564 67T472 7T352 -14Q286 -14 233 6T142 66T84 163T63 295V700H228V296Q228 215 259 178T352 141Q414 141 445 178T477 296V700H642ZM351 974L537 809L460 729L351 822L242 729L163 809L351 974Z"  />
<glyph unicode="&#xFC;" horiz-adv-x="705" d="M642 700V295Q642 221 622 164T564 67T472 7T352 -14Q286 -14 233 6T142 66T84 163T63 295V700H228V296Q228 215 259 178T352 141Q414 141 445 178T477 296V700H642ZM477 768Q447 768 427 789T407 840Q407 871 427 892T477 913Q507 913 527 892T548 840Q548 810 528 789T477 768ZM224 768Q194 768 174 789T153 840Q153 871 173 892T224 913Q253 913 273 892T294 840Q294 810 274 789T224 768Z"  />
<glyph unicode="&#xFD;" horiz-adv-x="681" d="M671 700L422 298V0H259V298L10 700H190L305 511Q322 482 330 464T340 446H341Q342 446 350 464T376 511L491 700H671ZM503 831L271 729L221 816L444 942L503 831Z"  />
<glyph unicode="&#xFE;" horiz-adv-x="613" d="M325 265Q369 265 392 288T415 350Q415 388 392 411T325 435H238V265H325ZM321 590Q381 590 429 573T512 523T566 447T585 350Q585 297 566 253T513 178T430 129T321 111H238V0H74V700H238V590H321Z"  />
<glyph unicode="&#xFF;" horiz-adv-x="681" d="M671 700L422 298V0H259V298L10 700H190L305 511Q322 482 330 464T340 446H341Q342 446 350 464T376 511L491 700H671ZM465 768Q435 768 415 789T395 840Q395 871 415 892T465 913Q495 913 515 892T536 840Q536 810 516 789T465 768ZM212 768Q182 768 162 789T141 840Q141 871 161 892T212 913Q241 913 261 892T282 840Q282 810 262 789T212 768Z"  />
<glyph unicode="&#x100;" horiz-adv-x="677" d="M418 257L369 409Q363 428 358 447T349 481T342 505T339 514H338Q338 514 336 505T329 481T320 447T308 409L259 257H418ZM465 110H212L177 0H3L254 700H424L675 0H500L465 110ZM504 767H180V895H504V767Z"  />
<glyph unicode="&#x101;" horiz-adv-x="677" d="M418 257L369 409Q363 428 358 447T349 481T342 505T339 514H338Q338 514 336 505T329 481T320 447T308 409L259 257H418ZM465 110H212L177 0H3L254 700H424L675 0H500L465 110ZM504 767H180V895H504V767Z"  />
<glyph unicode="&#x102;" horiz-adv-x="677" d="M418 257L369 409Q363 428 358 447T349 481T342 505T339 514H338Q338 514 336 505T329 481T320 447T308 409L259 257H418ZM465 110H212L177 0H3L254 700H424L675 0H500L465 110ZM522 898Q516 864 499 836T458 786T403 754T338 742Q302 742 271 753T215 786T174 835T151 898H268Q273 876 291 860T338 844Q366 844 384 860T407 898H522Z"  />
<glyph unicode="&#x103;" horiz-adv-x="677" d="M418 257L369 409Q363 428 358 447T349 481T342 505T339 514H338Q338 514 336 505T329 481T320 447T308 409L259 257H418ZM465 110H212L177 0H3L254 700H424L675 0H500L465 110ZM522 898Q516 864 499 836T458 786T403 754T338 742Q302 742 271 753T215 786T174 835T151 898H268Q273 876 291 860T338 844Q366 844 384 860T407 898H522Z"  />
<glyph unicode="&#x104;" horiz-adv-x="677" d="M418 257L369 409Q363 428 358 447T349 481T342 505T339 514H338Q338 514 336 505T329 481T320 447T308 409L259 257H418ZM721 -145Q693 -196 648 -221T554 -247Q516 -247 484 -237T427 -206T390 -155T376 -85Q376 -54 387 -28T413 17T447 48T479 64L465 110H212L177 0H3L254 700H424L675 0H598Q579 0 560 -5T525 -21T500 -47T490 -84Q490 -107 506 -125T556 -143Q580 -143 601 -129T635 -88L721 -145Z"  />
<glyph unicode="&#x105;" horiz-adv-x="677" d="M418 257L369 409Q363 428 358 447T349 481T342 505T339 514H338Q338 514 336 505T329 481T320 447T308 409L259 257H418ZM721 -145Q693 -196 648 -221T554 -247Q516 -247 484 -237T427 -206T390 -155T376 -85Q376 -54 387 -28T413 17T447 48T479 64L465 110H212L177 0H3L254 700H424L675 0H598Q579 0 560 -5T525 -21T500 -47T490 -84Q490 -107 506 -125T556 -143Q580 -143 601 -129T635 -88L721 -145Z"  />
<glyph unicode="&#x106;" horiz-adv-x="693" d="M493 485Q471 520 436 536T364 553Q288 553 246 499T204 350Q204 254 248 202T365 149Q410 149 448 170T506 235L668 192Q630 96 550 41T364 -14Q293 -14 232 12T127 85T58 200T33 350Q33 432 58 499T127 614T232 688T364 714Q464 714 539 665T657 528L493 485ZM527 831L295 729L245 816L468 942L527 831Z"  />
<glyph unicode="&#x107;" horiz-adv-x="693" d="M493 485Q471 520 436 536T364 553Q288 553 246 499T204 350Q204 254 248 202T365 149Q410 149 448 170T506 235L668 192Q630 96 550 41T364 -14Q293 -14 232 12T127 85T58 200T33 350Q33 432 58 499T127 614T232 688T364 714Q464 714 539 665T657 528L493 485ZM527 831L295 729L245 816L468 942L527 831Z"  />
<glyph unicode="&#x10A;" horiz-adv-x="693" d="M493 485Q471 520 436 536T364 553Q288 553 246 499T204 350Q204 254 248 202T365 149Q410 149 448 170T506 235L668 192Q630 96 550 41T364 -14Q293 -14 232 12T127 85T58 200T33 350Q33 432 58 499T127 614T232 688T364 714Q464 714 539 665T657 528L493 485ZM365 767Q335 767 315 788T294 840Q294 871 314 892T365 913Q394 913 414 892T435 840Q435 810 415 789T365 767Z"  />
<glyph unicode="&#x10B;" horiz-adv-x="693" d="M493 485Q471 520 436 536T364 553Q288 553 246 499T204 350Q204 254 248 202T365 149Q410 149 448 170T506 235L668 192Q630 96 550 41T364 -14Q293 -14 232 12T127 85T58 200T33 350Q33 432 58 499T127 614T232 688T364 714Q464 714 539 665T657 528L493 485ZM365 767Q335 767 315 788T294 840Q294 871 314 892T365 913Q394 913 414 892T435 840Q435 810 415 789T365 767Z"  />
<glyph unicode="&#x10C;" horiz-adv-x="693" d="M177 889L256 970L365 876L474 970L552 889L365 725L177 889ZM657 528Q615 616 540 665T364 714Q293 714 232 688T127 615T58 500T33 350Q33 267 58 200T127 86T232 12T364 -14Q470 -14 550 41T668 192L506 235Q486 192 448 171T365 149Q293 149 249 201T204 350Q204 444 246 498T364 553Q401 553 436 537T493 485L657 528Z"  />
<glyph unicode="&#x10D;" horiz-adv-x="693" d="M177 889L256 970L365 876L474 970L552 889L365 725L177 889ZM657 528Q615 616 540 665T364 714Q293 714 232 688T127 615T58 500T33 350Q33 267 58 200T127 86T232 12T364 -14Q470 -14 550 41T668 192L506 235Q486 192 448 171T365 149Q293 149 249 201T204 350Q204 444 246 498T364 553Q401 553 436 537T493 485L657 528Z"  />
<glyph unicode="&#x10E;" horiz-adv-x="723" d="M165 889L244 970L353 876L462 970L540 889L353 725L165 889ZM74 700V0H341Q417 0 481 24T591 94T664 203T690 347Q690 427 664 492T590 604T479 675T339 700H74ZM238 155V545H346Q382 545 414 532T469 494T505 432T519 347Q519 301 506 265T471 205T417 168T349 155H238Z"  />
<glyph unicode="&#x10F;" horiz-adv-x="723" d="M165 889L244 970L353 876L462 970L540 889L353 725L165 889ZM74 700V0H341Q417 0 481 24T591 94T664 203T690 347Q690 427 664 492T590 604T479 675T339 700H74ZM238 155V545H346Q382 545 414 532T469 494T505 432T519 347Q519 301 506 265T471 205T417 168T349 155H238Z"  />
<glyph unicode="&#x110;" horiz-adv-x="734" d="M360 155Q397 155 428 167T481 204T517 265T530 347Q530 395 517 431T480 493T425 532T357 545H249V429H351V279H249V155H360ZM350 700Q426 700 490 675T601 604T674 493T701 347Q701 267 675 203T603 94T492 25T352 0H85V279H33V429H85V700H350Z"  />
<glyph unicode="&#x111;" horiz-adv-x="734" d="M360 155Q397 155 428 167T481 204T517 265T530 347Q530 395 517 431T480 493T425 532T357 545H249V429H351V279H249V155H360ZM350 700Q426 700 490 675T601 604T674 493T701 347Q701 267 675 203T603 94T492 25T352 0H85V279H33V429H85V700H350Z"  />
<glyph unicode="&#x112;" horiz-adv-x="615" d="M551 156V0H74V700H545V545H238V428H475V282H238V156H551ZM489 767H165V895H489V767Z"  />
<glyph unicode="&#x113;" horiz-adv-x="615" d="M551 156V0H74V700H545V545H238V428H475V282H238V156H551ZM489 767H165V895H489V767Z"  />
<glyph unicode="&#x116;" horiz-adv-x="615" d="M551 156V0H74V700H545V545H238V428H475V282H238V156H551ZM323 767Q293 767 273 788T252 840Q252 871 272 892T323 913Q352 913 372 892T393 840Q393 810 373 789T323 767Z"  />
<glyph unicode="&#x117;" horiz-adv-x="615" d="M551 156V0H74V700H545V545H238V428H475V282H238V156H551ZM323 767Q293 767 273 788T252 840Q252 871 272 892T323 913Q352 913 372 892T393 840Q393 810 373 789T323 767Z"  />
<glyph unicode="&#x118;" horiz-adv-x="615" d="M570 -145Q542 -196 497 -221T403 -247Q365 -247 333 -237T276 -206T239 -155T225 -85Q225 -60 232 -39T250 0H74V700H545V545H238V428H475V282H238V156H551V0H447Q428 0 409 -5T374 -21T349 -47T339 -84Q339 -107 355 -125T405 -143Q429 -143 450 -129T484 -88L570 -145Z"  />
<glyph unicode="&#x119;" horiz-adv-x="615" d="M576 -145Q548 -196 503 -221T409 -247Q371 -247 339 -237T282 -206T245 -155T231 -85Q231 -60 238 -39T256 0H74V700H545V545H238V428H475V282H238V156H551V0H453Q434 0 415 -5T380 -21T355 -47T345 -84Q345 -107 361 -125T411 -143Q435 -143 456 -129T490 -88L576 -145Z"  />
<glyph unicode="&#x11A;" horiz-adv-x="615" d="M551 156V0H74V700H545V545H238V428H475V282H238V156H551ZM323 725L135 889L214 970L323 876L432 970L510 889L323 725Z"  />
<glyph unicode="&#x11B;" horiz-adv-x="615" d="M551 156V0H74V700H545V545H238V428H475V282H238V156H551ZM323 725L135 889L214 970L323 876L432 970L510 889L323 725Z"  />
<glyph unicode="&#x11C;" horiz-adv-x="724" d="M531 58Q506 29 459 8T360 -13Q290 -13 231 13T127 86T58 200T33 350Q33 432 58 499T127 614T232 688T364 714Q463 714 539 665T657 528L493 485Q470 520 436 536T364 553Q288 553 246 499T203 350Q203 302 215 264T251 200T305 160T376 146Q412 146 438 155T482 179T512 213T531 253V264H368V397H670V0H531Q531 35 531 46T532 58H531ZM362 974L548 809L471 729L362 822L253 729L174 809L362 974Z"  />
<glyph unicode="&#x11D;" horiz-adv-x="724" d="M531 58Q506 29 459 8T360 -13Q290 -13 231 13T127 86T58 200T33 350Q33 432 58 499T127 614T232 688T364 714Q463 714 539 665T657 528L493 485Q470 520 436 536T364 553Q288 553 246 499T203 350Q203 302 215 264T251 200T305 160T376 146Q412 146 438 155T482 179T512 213T531 253V264H368V397H670V0H531Q531 35 531 46T532 58H531ZM362 974L548 809L471 729L362 822L253 729L174 809L362 974Z"  />
<glyph unicode="&#x11E;" horiz-adv-x="724" d="M531 58Q506 29 459 8T360 -13Q290 -13 231 13T127 86T58 200T33 350Q33 432 58 499T127 614T232 688T364 714Q463 714 539 665T657 528L493 485Q470 520 436 536T364 553Q288 553 246 499T203 350Q203 302 215 264T251 200T305 160T376 146Q412 146 438 155T482 179T512 213T531 253V264H368V397H670V0H531Q531 35 531 46T532 58H531ZM294 898Q299 876 317 860T364 844Q392 844 410 860T433 898H548Q542 864 525 836T484 786T429 754T364 742Q328 742 297 753T241 786T200 835T177 898H294Z"  />
<glyph unicode="&#x11F;" horiz-adv-x="724" d="M531 58Q506 29 459 8T360 -13Q290 -13 231 13T127 86T58 200T33 350Q33 432 58 499T127 614T232 688T364 714Q463 714 539 665T657 528L493 485Q470 520 436 536T364 553Q288 553 246 499T203 350Q203 302 215 264T251 200T305 160T376 146Q412 146 438 155T482 179T512 213T531 253V264H368V397H670V0H531Q531 35 531 46T532 58H531ZM294 898Q299 876 317 860T364 844Q392 844 410 860T433 898H548Q542 864 525 836T484 786T429 754T364 742Q328 742 297 753T241 786T200 835T177 898H294Z"  />
<glyph unicode="&#x120;" horiz-adv-x="724" d="M531 58Q506 29 459 8T360 -13Q290 -13 231 13T127 86T58 200T33 350Q33 432 58 499T127 614T232 688T364 714Q463 714 539 665T657 528L493 485Q470 520 436 536T364 553Q288 553 246 499T203 350Q203 302 215 264T251 200T305 160T376 146Q412 146 438 155T482 179T512 213T531 253V264H368V397H670V0H531Q531 35 531 46T532 58H531ZM364 767Q334 767 314 788T293 840Q293 871 313 892T364 913Q393 913 413 892T434 840Q434 810 414 789T364 767Z"  />
<glyph unicode="&#x121;" horiz-adv-x="724" d="M531 58Q506 29 459 8T360 -13Q290 -13 231 13T127 86T58 200T33 350Q33 432 58 499T127 614T232 688T364 714Q463 714 539 665T657 528L493 485Q470 520 436 536T364 553Q288 553 246 499T203 350Q203 302 215 264T251 200T305 160T376 146Q412 146 438 155T482 179T512 213T531 253V264H368V397H670V0H531Q531 35 531 46T532 58H531ZM364 767Q334 767 314 788T293 840Q293 871 313 892T364 913Q393 913 413 892T434 840Q434 810 414 789T364 767Z"  />
<glyph unicode="&#x122;" horiz-adv-x="724" d="M353 -175L339 -174Q320 -171 304 -155T288 -110Q288 -81 308 -60T357 -39Q386 -39 406 -61T426 -119Q426 -140 418 -163T397 -209T365 -253T326 -291H272Q284 -284 295 -270T317 -239T333 -206T339 -179L353 -175ZM531 58Q506 29 459 8T360 -13Q290 -13 231 13T127 86T58 200T33 350Q33 432 58 499T127 614T232 688T364 714Q463 714 539 665T657 528L493 485Q470 520 436 536T364 553Q288 553 246 499T203 350Q203 302 215 264T251 200T305 160T376 146Q412 146 438 155T482 179T512 213T531 253V264H368V397H670V0H531Q531 35 531 46T532 58H531Z"  />
<glyph unicode="&#x123;" horiz-adv-x="724" d="M353 -175L339 -174Q320 -171 304 -155T288 -110Q288 -81 308 -60T357 -39Q386 -39 406 -61T426 -119Q426 -140 418 -163T397 -209T365 -253T326 -291H272Q284 -284 295 -270T317 -239T333 -206T339 -179L353 -175ZM531 58Q506 29 459 8T360 -13Q290 -13 231 13T127 86T58 200T33 350Q33 432 58 499T127 614T232 688T364 714Q463 714 539 665T657 528L493 485Q470 520 436 536T364 553Q288 553 246 499T203 350Q203 302 215 264T251 200T305 160T376 146Q412 146 438 155T482 179T512 213T531 253V264H368V397H670V0H531Q531 35 531 46T532 58H531Z"  />
<glyph unicode="&#x124;" horiz-adv-x="706" d="M633 700V0H468V272H238V0H74V700H238V430H468V700H633ZM242 729L163 809L351 974L537 809L460 729L351 822L242 729Z"  />
<glyph unicode="&#x125;" horiz-adv-x="706" d="M633 700V0H468V272H238V0H74V700H238V430H468V700H633ZM242 729L163 809L351 974L537 809L460 729L351 822L242 729Z"  />
<glyph unicode="&#x126;" horiz-adv-x="706" d="M468 503H238V430H468V503ZM698 503H633V0H468V272H238V0H74V503H8V638H74V700H238V638H468V700H633V638H698V503Z"  />
<glyph unicode="&#x127;" horiz-adv-x="706" d="M468 503H238V430H468V503ZM698 503H633V0H468V272H238V0H74V503H8V638H74V700H238V638H468V700H633V638H698V503Z"  />
<glyph unicode="&#x12A;" horiz-adv-x="312" d="M74 0V700H238V0H74ZM322 895V767H-2V895H322Z"  />
<glyph unicode="&#x12B;" horiz-adv-x="312" d="M74 0V700H238V0H74ZM322 895V767H-2V895H322Z"  />
<glyph unicode="&#x12E;" horiz-adv-x="312" d="M311 -145Q283 -196 238 -221T144 -247Q106 -247 74 -237T17 -206T-20 -155T-34 -85Q-34 -53 -23 -27T6 19T41 50T74 65V700H238V0H188Q169 0 150 -5T115 -21T90 -47T80 -84Q80 -107 96 -125T146 -143Q170 -143 191 -129T225 -88L311 -145Z"  />
<glyph unicode="&#x12F;" horiz-adv-x="312" d="M311 -145Q283 -196 238 -221T144 -247Q106 -247 74 -237T17 -206T-20 -155T-34 -85Q-34 -53 -23 -27T6 19T41 50T74 65V700H238V0H188Q169 0 150 -5T115 -21T90 -47T80 -84Q80 -107 96 -125T146 -143Q170 -143 191 -129T225 -88L311 -145Z"  />
<glyph unicode="&#x130;" horiz-adv-x="312" d="M74 0V700H238V0H74ZM156 767Q126 767 106 788T85 840Q85 871 105 892T156 913Q185 913 205 892T226 840Q226 810 206 789T156 767Z"  />
<glyph unicode="&#x131;" horiz-adv-x="312" d="M74 0V700H238V0H74Z"  />
<glyph unicode="&#x132;" horiz-adv-x="936" d="M873 700V295Q873 221 852 164T793 67T700 7T580 -14Q530 -14 487 -1T409 36T348 93T308 165L468 208Q499 141 580 141Q641 141 675 179T709 285V700H873ZM74 0V700H238V0H74Z"  />
<glyph unicode="&#x133;" horiz-adv-x="936" d="M873 700V295Q873 221 852 164T793 67T700 7T580 -14Q530 -14 487 -1T409 36T348 93T308 165L468 208Q499 141 580 141Q641 141 675 179T709 285V700H873ZM74 0V700H238V0H74Z"  />
<glyph unicode="&#x134;" horiz-adv-x="639" d="M576 700V295Q576 221 555 164T496 67T403 7T283 -14Q233 -14 190 -1T112 36T51 93T11 165L171 208Q202 141 283 141Q344 141 378 179T412 285V700H576ZM492 974L678 809L601 729L492 822L383 729L304 809L492 974Z"  />
<glyph unicode="&#x135;" horiz-adv-x="639" d="M576 700V295Q576 221 555 164T496 67T403 7T283 -14Q233 -14 190 -1T112 36T51 93T11 165L171 208Q202 141 283 141Q344 141 378 179T412 285V700H576ZM492 974L678 809L601 729L492 822L383 729L304 809L492 974Z"  />
<glyph unicode="&#x136;" horiz-adv-x="693" d="M335 -174Q316 -171 300 -155T284 -110Q284 -81 304 -60T353 -39Q382 -39 402 -61T422 -119Q422 -140 414 -163T393 -209T361 -253T322 -291H268Q280 -284 291 -270T313 -239T329 -206T335 -179L349 -175L335 -174ZM677 0H485L287 290L238 238V0H74V700H238V587Q238 509 237 475T236 440H237Q238 440 255 462T322 537L475 700H675L395 404L677 0Z"  />
<glyph unicode="&#x137;" horiz-adv-x="693" d="M336 -174Q317 -171 301 -155T285 -110Q285 -81 305 -60T354 -39Q383 -39 403 -61T423 -119Q423 -140 415 -163T394 -209T362 -253T323 -291H269Q281 -284 292 -270T314 -239T330 -206T336 -179L350 -175L336 -174ZM677 0H485L287 290L238 238V0H74V700H238V587Q238 509 237 475T236 440H237Q238 440 255 462T322 537L475 700H675L395 404L677 0Z"  />
<glyph unicode="&#x139;" horiz-adv-x="561" d="M541 156V0H74V700H238V156H541ZM98 729L48 816L271 942L330 831L98 729Z"  />
<glyph unicode="&#x13A;" horiz-adv-x="561" d="M541 156V0H74V700H238V156H541ZM98 729L48 816L271 942L330 831L98 729Z"  />
<glyph unicode="&#x13B;" horiz-adv-x="561" d="M296 -174Q277 -171 261 -155T245 -110Q245 -81 265 -60T314 -39Q343 -39 363 -61T383 -119Q383 -140 375 -163T354 -209T322 -253T283 -291H229Q241 -284 252 -270T274 -239T290 -206T296 -179L310 -175L296 -174ZM541 156V0H74V700H238V156H541Z"  />
<glyph unicode="&#x13C;" horiz-adv-x="561" d="M250 -174Q231 -171 215 -155T199 -110Q199 -81 219 -60T268 -39Q297 -39 317 -61T337 -119Q337 -140 329 -163T308 -209T276 -253T237 -291H183Q195 -284 206 -270T228 -239T244 -206T250 -179L264 -175L250 -174ZM541 156V0H74V700H238V156H541Z"  />
<glyph unicode="&#x13D;" horiz-adv-x="561" d="M541 156V0H74V700H238V156H541ZM381 565Q360 568 343 586T325 635Q325 667 347 689T401 712Q432 712 454 688T476 625Q476 601 467 576T443 525T408 477T366 436H307Q320 444 333 459T356 493T374 528T381 558L396 563L381 565Z"  />
<glyph unicode="&#x13E;" horiz-adv-x="561" d="M541 156V0H74V700H238V156H541ZM375 565Q354 568 336 586T318 635Q318 667 340 689T394 712Q426 712 448 688T470 625Q470 601 461 576T437 525T402 477T360 436H301Q314 444 327 459T350 493T368 528T375 558L389 563L375 565Z"  />
<glyph unicode="&#x13F;" horiz-adv-x="561" d="M407 316Q378 316 357 337T336 389Q336 419 357 440T407 462Q436 462 457 441T478 389Q478 358 457 337T407 316ZM541 156V0H74V700H238V156H541Z"  />
<glyph unicode="&#x140;" horiz-adv-x="561" d="M407 316Q378 316 357 337T336 389Q336 419 357 440T407 462Q436 462 457 441T478 389Q478 358 457 337T407 316ZM541 156V0H74V700H238V156H541Z"  />
<glyph unicode="&#x141;" horiz-adv-x="561" d="M541 156V0H74V700H238V447L464 563V407L238 292V156H541Z"  />
<glyph unicode="&#x142;" horiz-adv-x="561" d="M541 156V0H74V700H238V447L464 563V407L238 292V156H541Z"  />
<glyph unicode="&#x143;" horiz-adv-x="729" d="M655 700V0H505L367 212Q346 242 323 277T280 341T247 390T234 410H232Q232 410 232 392T234 339T236 259T237 155V0H74V700H224L370 479Q385 456 406 425T447 365T481 316T495 295H496Q496 295 496 315T495 368T493 446T492 540V700H655ZM526 831L294 729L244 816L467 942L526 831Z"  />
<glyph unicode="&#x144;" horiz-adv-x="729" d="M655 700V0H505L367 212Q346 242 323 277T280 341T247 390T234 410H232Q232 410 232 392T234 339T236 259T237 155V0H74V700H224L370 479Q385 456 406 425T447 365T481 316T495 295H496Q496 295 496 315T495 368T493 446T492 540V700H655ZM526 831L294 729L244 816L467 942L526 831Z"  />
<glyph unicode="&#x145;" horiz-adv-x="729" d="M363 -175L349 -174Q330 -171 314 -155T298 -110Q298 -81 318 -60T367 -39Q396 -39 416 -61T436 -119Q436 -140 428 -163T407 -209T375 -253T336 -291H282Q294 -284 305 -270T327 -239T343 -206T349 -179L363 -175ZM655 700V0H505L367 212Q346 242 323 277T280 341T247 390T234 410H232Q232 410 232 392T234 339T236 259T237 155V0H74V700H224L370 479Q385 456 406 425T447 365T481 316T495 295H496Q496 295 496 315T495 368T493 446T492 540V700H655Z"  />
<glyph unicode="&#x146;" horiz-adv-x="729" d="M363 -175L349 -174Q330 -171 314 -155T298 -110Q298 -81 318 -60T367 -39Q396 -39 416 -61T436 -119Q436 -140 428 -163T407 -209T375 -253T336 -291H282Q294 -284 305 -270T327 -239T343 -206T349 -179L363 -175ZM655 700V0H505L367 212Q346 242 323 277T280 341T247 390T234 410H232Q232 410 232 392T234 339T236 259T237 155V0H74V700H224L370 479Q385 456 406 425T447 365T481 316T495 295H496Q496 295 496 315T495 368T493 446T492 540V700H655Z"  />
<glyph unicode="&#x147;" horiz-adv-x="729" d="M176 889L255 970L364 876L473 970L551 889L364 725L176 889ZM492 700V540Q492 491 493 447T494 369T495 315T496 295H495Q495 295 481 315T448 364T407 424T370 479L224 700H74V0H237V155Q237 212 236 258T234 339T233 391T232 410H234Q234 410 247 391T279 342T322 277T367 212L505 0H655V700H492Z"  />
<glyph unicode="&#x148;" horiz-adv-x="729" d="M176 889L255 970L364 876L473 970L551 889L364 725L176 889ZM492 700V540Q492 491 493 447T494 369T495 315T496 295H495Q495 295 481 315T448 364T407 424T370 479L224 700H74V0H237V155Q237 212 236 258T234 339T233 391T232 410H234Q234 410 247 391T279 342T322 277T367 212L505 0H655V700H492Z"  />
<glyph unicode="&#x14A;" horiz-adv-x="729" d="M655 700V0Q655 -53 638 -98T589 -176T514 -227T420 -246H379V-114H405Q450 -114 477 -83T505 0L367 212Q346 242 323 277T280 341T247 390T234 410H232Q232 410 232 392T234 339T236 259T237 155V0H74V700H224L370 479Q385 456 406 425T447 365T481 316T495 295H496Q496 295 496 315T495 368T493 446T492 540V700H655Z"  />
<glyph unicode="&#x14B;" horiz-adv-x="729" d="M655 700V0Q655 -53 638 -98T589 -176T514 -227T420 -246H379V-114H405Q450 -114 477 -83T505 0L367 212Q346 242 323 277T280 341T247 390T234 410H232Q232 410 232 392T234 339T236 259T237 155V0H74V700H224L370 479Q385 456 406 425T447 365T481 316T495 295H496Q496 295 496 315T495 368T493 446T492 540V700H655Z"  />
<glyph unicode="&#x14C;" horiz-adv-x="729" d="M204 350Q204 254 246 201T364 147Q439 147 482 200T525 350Q525 447 482 500T364 553Q289 553 247 500T204 350ZM33 350Q33 432 58 499T127 614T232 688T364 714Q436 714 496 688T601 615T671 500T696 350Q696 267 671 200T602 86T497 12T364 -14Q293 -14 232 12T127 85T58 200T33 350ZM534 895V767H210V895H534Z"  />
<glyph unicode="&#x14D;" horiz-adv-x="729" d="M204 350Q204 254 246 201T364 147Q439 147 482 200T525 350Q525 447 482 500T364 553Q289 553 247 500T204 350ZM33 350Q33 432 58 499T127 614T232 688T364 714Q436 714 496 688T601 615T671 500T696 350Q696 267 671 200T602 86T497 12T364 -14Q293 -14 232 12T127 85T58 200T33 350ZM533 895V767H209V895H533Z"  />
<glyph unicode="&#x150;" horiz-adv-x="729" d="M364 147Q439 147 482 200T525 350Q525 447 482 500T364 553Q289 553 247 500T204 350Q204 254 246 201T364 147ZM364 714Q436 714 496 688T601 615T671 500T696 350Q696 267 671 200T602 86T497 12T364 -14Q293 -14 232 12T127 85T58 200T33 350Q33 432 58 499T127 614T232 688T364 714ZM231 729L181 816L404 942L442 870L569 942L628 831L396 729L363 787L231 729Z"  />
<glyph unicode="&#x151;" horiz-adv-x="729" d="M364 147Q439 147 482 200T525 350Q525 447 482 500T364 553Q289 553 247 500T204 350Q204 254 246 201T364 147ZM364 714Q436 714 496 688T601 615T671 500T696 350Q696 267 671 200T602 86T497 12T364 -14Q293 -14 232 12T127 85T58 200T33 350Q33 432 58 499T127 614T232 688T364 714ZM230 729L180 816L403 942L441 870L568 942L627 831L395 729L362 787L230 729Z"  />
<glyph unicode="&#x152;" horiz-adv-x="978" d="M443 529Q407 543 359 543Q288 543 246 494T204 350Q204 256 246 207T359 158Q411 158 443 172V529ZM915 156V0H443V1Q423 -2 402 -3T357 -4Q286 -4 227 21T125 92T57 203T33 350Q33 431 57 496T124 608T227 679T357 704Q374 704 396 704T443 699V700H909V545H602V428H838V282H602V156H915Z"  />
<glyph unicode="&#x153;" horiz-adv-x="978" d="M443 529Q407 543 359 543Q288 543 246 494T204 350Q204 256 246 207T359 158Q411 158 443 172V529ZM915 156V0H443V1Q423 -2 402 -3T357 -4Q286 -4 227 21T125 92T57 203T33 350Q33 431 57 496T124 608T227 679T357 704Q374 704 396 704T443 699V700H909V545H602V428H838V282H602V156H915Z"  />
<glyph unicode="&#x154;" horiz-adv-x="641" d="M238 376H338Q359 376 374 383T398 403T413 430T418 461Q418 477 413 492T399 519T374 538T338 546H238V376ZM431 0L312 229H238V0H74V700H322Q382 700 431 683T516 635T570 559T589 461Q589 390 558 340T469 261L615 0H431ZM239 729L189 816L412 942L471 831L239 729Z"  />
<glyph unicode="&#x155;" horiz-adv-x="641" d="M238 376H338Q359 376 374 383T398 403T413 430T418 461Q418 477 413 492T399 519T374 538T338 546H238V376ZM431 0L312 229H238V0H74V700H322Q382 700 431 683T516 635T570 559T589 461Q589 390 558 340T469 261L615 0H431ZM239 729L189 816L412 942L471 831L239 729Z"  />
<glyph unicode="&#x156;" horiz-adv-x="641" d="M310 -174Q291 -171 275 -155T259 -110Q259 -81 279 -60T328 -39Q357 -39 377 -61T397 -119Q397 -140 389 -163T368 -209T336 -253T297 -291H243Q255 -284 266 -270T288 -239T304 -206T310 -179L324 -175L310 -174ZM238 376H338Q359 376 374 383T398 403T413 430T418 461Q418 477 413 492T399 519T374 538T338 546H238V376ZM615 0H431L312 229H238V0H74V700H322Q382 700 431 683T516 635T570 559T589 461Q589 390 558 340T469 261L615 0Z"  />
<glyph unicode="&#x157;" horiz-adv-x="641" d="M317 -174Q298 -171 282 -155T266 -110Q266 -81 286 -60T335 -39Q364 -39 384 -61T404 -119Q404 -140 396 -163T375 -209T343 -253T304 -291H250Q262 -284 273 -270T295 -239T311 -206T317 -179L331 -175L317 -174ZM238 376H338Q359 376 374 383T398 403T413 430T418 461Q418 477 413 492T399 519T374 538T338 546H238V376ZM615 0H431L312 229H238V0H74V700H322Q382 700 431 683T516 635T570 559T589 461Q589 390 558 340T469 261L615 0Z"  />
<glyph unicode="&#x158;" horiz-adv-x="641" d="M238 376H338Q359 376 374 383T398 403T413 430T418 461Q418 477 413 492T399 519T374 538T338 546H238V376ZM431 0L312 229H238V0H74V700H322Q382 700 431 683T516 635T570 559T589 461Q589 390 558 340T469 261L615 0H431ZM309 725L121 889L200 970L309 876L418 970L496 889L309 725Z"  />
<glyph unicode="&#x159;" horiz-adv-x="641" d="M238 376H338Q359 376 374 383T398 403T413 430T418 461Q418 477 413 492T399 519T374 538T338 546H238V376ZM431 0L312 229H238V0H74V700H322Q382 700 431 683T516 635T570 559T589 461Q589 390 558 340T469 261L615 0H431ZM309 725L121 889L200 970L309 876L418 970L496 889L309 725Z"  />
<glyph unicode="&#x15A;" horiz-adv-x="583" d="M398 481Q384 527 352 549T284 571Q250 571 231 556T212 520Q212 504 223 492T253 468T300 445T360 419Q395 404 430 385T494 339T541 280T559 202Q559 155 541 116T488 48T407 3T302 -14Q246 -14 201 1T120 45T60 112T20 198L177 240Q183 219 194 200T222 167T260 143T307 134Q346 134 366 151T387 194Q387 214 375 228T340 253T289 276T225 302Q192 318 160 336T102 379T61 435T45 513Q45 551 63 587T113 651T191 697T293 714Q341 714 383 700T459 660T517 600T554 524L398 481ZM466 831L234 729L184 816L407 942L466 831Z"  />
<glyph unicode="&#x15B;" horiz-adv-x="583" d="M398 481Q384 527 352 549T284 571Q250 571 231 556T212 520Q212 504 223 492T253 468T300 445T360 419Q395 404 430 385T494 339T541 280T559 202Q559 155 541 116T488 48T407 3T302 -14Q246 -14 201 1T120 45T60 112T20 198L177 240Q183 219 194 200T222 167T260 143T307 134Q346 134 366 151T387 194Q387 214 375 228T340 253T289 276T225 302Q192 318 160 336T102 379T61 435T45 513Q45 551 63 587T113 651T191 697T293 714Q341 714 383 700T459 660T517 600T554 524L398 481ZM474 831L242 729L192 816L415 942L474 831Z"  />
<glyph unicode="&#x15C;" horiz-adv-x="583" d="M398 481Q384 527 352 549T284 571Q250 571 231 556T212 520Q212 504 223 492T253 468T300 445T360 419Q395 404 430 385T494 339T541 280T559 202Q559 155 541 116T488 48T407 3T302 -14Q246 -14 201 1T120 45T60 112T20 198L177 240Q183 219 194 200T222 167T260 143T307 134Q346 134 366 151T387 194Q387 214 375 228T340 253T289 276T225 302Q192 318 160 336T102 379T61 435T45 513Q45 551 63 587T113 651T191 697T293 714Q341 714 383 700T459 660T517 600T554 524L398 481ZM302 974L488 809L411 729L302 822L193 729L114 809L302 974Z"  />
<glyph unicode="&#x15D;" horiz-adv-x="583" d="M398 481Q384 527 352 549T284 571Q250 571 231 556T212 520Q212 504 223 492T253 468T300 445T360 419Q395 404 430 385T494 339T541 280T559 202Q559 155 541 116T488 48T407 3T302 -14Q246 -14 201 1T120 45T60 112T20 198L177 240Q183 219 194 200T222 167T260 143T307 134Q346 134 366 151T387 194Q387 214 375 228T340 253T289 276T225 302Q192 318 160 336T102 379T61 435T45 513Q45 551 63 587T113 651T191 697T293 714Q341 714 383 700T459 660T517 600T554 524L398 481ZM302 974L488 809L411 729L302 822L193 729L114 809L302 974Z"  />
<glyph unicode="&#x15E;" horiz-adv-x="583" d="M398 481Q384 527 352 549T284 571Q250 571 231 556T212 520Q212 504 223 492T253 468T300 445T360 419Q395 404 430 385T494 339T541 280T559 202Q559 161 545 126T504 63T441 16T357 -10L340 -56Q360 -56 379 -63T412 -84T436 -117T445 -162Q445 -192 436 -213T410 -247T373 -266T329 -272H214L247 -186H328Q342 -186 348 -179T355 -163Q355 -152 348 -146T328 -139H224L267 -12Q171 -3 109 54T20 198L177 240Q183 219 194 200T222 167T260 143T307 134Q346 134 366 151T387 194Q387 214 375 228T340 253T289 276T225 302Q192 318 160 336T102 379T61 435T45 513Q45 551 63 587T113 651T191 697T293 714Q341 714 383 700T459 660T517 600T554 524L398 481Z"  />
<glyph unicode="&#x15F;" horiz-adv-x="583" d="M398 481Q384 527 352 549T284 571Q250 571 231 556T212 520Q212 504 223 492T253 468T300 445T360 419Q395 404 430 385T494 339T541 280T559 202Q559 162 545 127T505 65T443 18T362 -9L344 -56Q364 -56 383 -63T416 -84T440 -117T449 -162Q449 -192 440 -213T414 -247T377 -266T333 -272H218L251 -186H332Q346 -186 352 -179T359 -163Q359 -152 352 -146T332 -139H228L271 -13Q173 -4 110 53T20 198L177 240Q183 219 194 200T222 167T260 143T307 134Q346 134 366 151T387 194Q387 214 375 228T340 253T289 276T225 302Q192 318 160 336T102 379T61 435T45 513Q45 551 63 587T113 651T191 697T293 714Q341 714 383 700T459 660T517 600T554 524L398 481Z"  />
<glyph unicode="&#x160;" horiz-adv-x="583" d="M116 889L195 970L304 876L413 970L491 889L304 725L116 889ZM554 524Q542 565 518 599T459 659T383 699T293 714Q237 714 192 697T114 652T63 587T45 513Q45 468 60 436T101 379T159 337T225 302Q259 287 288 276T340 254T374 228T387 194Q387 168 367 151T307 134Q281 134 260 143T223 166T195 200T177 240L20 198Q35 151 60 112T120 45T200 2T302 -14Q359 -14 406 2T488 47T540 115T559 202Q559 246 541 279T495 339T431 384T360 419Q328 433 301 445T254 468T223 491T212 520Q212 541 231 556T284 571Q319 571 351 549T398 481L554 524Z"  />
<glyph unicode="&#x161;" horiz-adv-x="583" d="M124 889L203 970L312 876L421 970L499 889L312 725L124 889ZM554 524Q542 565 518 599T459 659T383 699T293 714Q237 714 192 697T114 652T63 587T45 513Q45 468 60 436T101 379T159 337T225 302Q259 287 288 276T340 254T374 228T387 194Q387 168 367 151T307 134Q281 134 260 143T223 166T195 200T177 240L20 198Q35 151 60 112T120 45T200 2T302 -14Q359 -14 406 2T488 47T540 115T559 202Q559 246 541 279T495 339T431 384T360 419Q328 433 301 445T254 468T223 491T212 520Q212 541 231 556T284 571Q319 571 351 549T398 481L554 524Z"  />
<glyph unicode="&#x162;" horiz-adv-x="572" d="M319 0L298 -56Q318 -56 337 -63T370 -84T394 -117T403 -162Q403 -192 394 -213T368 -247T331 -266T287 -272H172L205 -186H286Q300 -186 306 -179T313 -163Q313 -152 306 -146T286 -139H182L229 0H203V545H10V700H562V545H367V0H319Z"  />
<glyph unicode="&#x163;" horiz-adv-x="572" d="M319 0L298 -56Q318 -56 337 -63T370 -84T394 -117T403 -162Q403 -192 394 -213T368 -247T331 -266T287 -272H172L205 -186H286Q300 -186 306 -179T313 -163Q313 -152 306 -146T286 -139H182L229 0H203V545H10V700H562V545H367V0H319Z"  />
<glyph unicode="&#x164;" horiz-adv-x="572" d="M562 700V545H367V0H203V545H10V700H562ZM297 725L109 889L188 970L297 876L406 970L484 889L297 725Z"  />
<glyph unicode="&#x165;" horiz-adv-x="572" d="M562 700V545H367V0H203V545H10V700H562ZM297 725L109 889L188 970L297 876L406 970L484 889L297 725Z"  />
<glyph unicode="&#x166;" horiz-adv-x="572" d="M367 545V423H470V298H367V0H203V298H101V423H203V545H10V700H562V545H367Z"  />
<glyph unicode="&#x167;" horiz-adv-x="572" d="M367 545V423H470V298H367V0H203V298H101V423H203V545H10V700H562V545H367Z"  />
<glyph unicode="&#x16A;" horiz-adv-x="705" d="M642 700V295Q642 221 622 164T564 67T472 7T352 -14Q286 -14 233 6T142 66T84 163T63 295V700H228V296Q228 215 259 178T352 141Q414 141 445 178T477 296V700H642ZM519 895V767H195V895H519Z"  />
<glyph unicode="&#x16B;" horiz-adv-x="705" d="M642 700V295Q642 221 622 164T564 67T472 7T352 -14Q286 -14 233 6T142 66T84 163T63 295V700H228V296Q228 215 259 178T352 141Q414 141 445 178T477 296V700H642ZM519 895V767H195V895H519Z"  />
<glyph unicode="&#x16C;" horiz-adv-x="705" d="M642 700V295Q642 221 622 164T564 67T472 7T352 -14Q286 -14 233 6T142 66T84 163T63 295V700H228V296Q228 215 259 178T352 141Q414 141 445 178T477 296V700H642ZM283 898Q288 876 306 860T353 844Q381 844 399 860T422 898H537Q531 864 514 836T473 786T418 754T353 742Q317 742 286 753T230 786T189 835T166 898H283Z"  />
<glyph unicode="&#x16D;" horiz-adv-x="705" d="M642 700V295Q642 221 622 164T564 67T472 7T352 -14Q286 -14 233 6T142 66T84 163T63 295V700H228V296Q228 215 259 178T352 141Q414 141 445 178T477 296V700H642ZM283 898Q288 876 306 860T353 844Q381 844 399 860T422 898H537Q531 864 514 836T473 786T418 754T353 742Q317 742 286 753T230 786T189 835T166 898H283Z"  />
<glyph unicode="&#x16E;" horiz-adv-x="705" d="M642 700V295Q642 221 622 164T564 67T472 7T352 -14Q286 -14 233 6T142 66T84 163T63 295V700H228V296Q228 215 259 178T352 141Q414 141 445 178T477 296V700H642ZM353 771Q376 771 391 787T406 825Q406 849 391 865T353 881Q332 881 317 865T301 825Q301 803 316 787T353 771ZM353 676Q323 676 296 687T249 719T217 767T205 825Q205 855 216 882T248 929T296 961T353 973Q384 973 410 962T457 930T488 882T500 825Q500 794 489 767T457 720T411 688T353 676Z"  />
<glyph unicode="&#x16F;" horiz-adv-x="705" d="M642 700V295Q642 221 622 164T564 67T472 7T352 -14Q286 -14 233 6T142 66T84 163T63 295V700H228V296Q228 215 259 178T352 141Q414 141 445 178T477 296V700H642ZM353 771Q376 771 391 787T406 825Q406 849 391 865T353 881Q332 881 317 865T301 825Q301 803 316 787T353 771ZM353 676Q323 676 296 687T249 719T217 767T205 825Q205 855 216 882T248 929T296 961T353 973Q384 973 410 962T457 930T488 882T500 825Q500 794 489 767T457 720T411 688T353 676Z"  />
<glyph unicode="&#x170;" horiz-adv-x="705" d="M642 700V295Q642 221 622 164T564 67T472 7T352 -14Q286 -14 233 6T142 66T84 163T63 295V700H228V296Q228 215 259 178T352 141Q414 141 445 178T477 296V700H642ZM216 729L166 816L389 942L427 870L554 942L613 831L381 729L348 787L216 729Z"  />
<glyph unicode="&#x171;" horiz-adv-x="705" d="M642 700V295Q642 221 622 164T564 67T472 7T352 -14Q286 -14 233 6T142 66T84 163T63 295V700H228V296Q228 215 259 178T352 141Q414 141 445 178T477 296V700H642ZM216 729L166 816L389 942L427 870L554 942L613 831L381 729L348 787L216 729Z"  />
<glyph unicode="&#x172;" horiz-adv-x="705" d="M642 295Q642 175 590 100T447 -2Q418 -15 398 -35T377 -87Q377 -112 393 -127T436 -143Q458 -143 479 -127T513 -86L597 -142Q573 -190 529 -218T435 -247Q400 -247 369 -237T315 -208T278 -161T264 -98Q264 -71 274 -49T298 -10Q188 6 126 84T63 295V700H228V296Q228 215 259 178T352 141Q414 141 445 178T477 296V700H642V295Z"  />
<glyph unicode="&#x173;" horiz-adv-x="705" d="M642 295Q642 175 590 100T447 -2Q418 -15 398 -35T377 -87Q377 -112 393 -127T436 -143Q458 -143 479 -127T513 -86L597 -142Q573 -190 529 -218T435 -247Q400 -247 369 -237T315 -208T278 -161T264 -98Q264 -71 274 -49T298 -10Q188 6 126 84T63 295V700H228V296Q228 215 259 178T352 141Q414 141 445 178T477 296V700H642V295Z"  />
<glyph unicode="&#x174;" horiz-adv-x="997" d="M975 700L785 0H624L528 323Q520 350 515 373T506 413T501 440T499 450H498Q498 450 496 440T491 413T483 373T469 323L373 0H212L23 700H199L273 370Q279 344 283 321T291 279T296 251T298 240H299Q299 240 301 250T308 279T319 320T334 370L421 645H576L664 370Q672 344 678 321T688 279T695 251T698 240H700Q700 240 702 250T707 279T714 320T724 370L798 700H975ZM497 974L683 809L606 729L497 822L388 729L309 809L497 974Z"  />
<glyph unicode="&#x175;" horiz-adv-x="997" d="M975 700L785 0H624L528 323Q520 350 515 373T506 413T501 440T499 450H498Q498 450 496 440T491 413T483 373T469 323L373 0H212L23 700H199L273 370Q279 344 283 321T291 279T296 251T298 240H299Q299 240 301 250T308 279T319 320T334 370L421 645H576L664 370Q672 344 678 321T688 279T695 251T698 240H700Q700 240 702 250T707 279T714 320T724 370L798 700H975ZM489 974L675 809L598 729L489 822L380 729L301 809L489 974Z"  />
<glyph unicode="&#x176;" horiz-adv-x="681" d="M671 700L422 298V0H259V298L10 700H190L305 511Q322 482 330 464T340 446H341Q342 446 350 464T376 511L491 700H671ZM338 974L524 809L447 729L338 822L229 729L150 809L338 974Z"  />
<glyph unicode="&#x177;" horiz-adv-x="681" d="M671 700L422 298V0H259V298L10 700H190L305 511Q322 482 330 464T340 446H341Q342 446 350 464T376 511L491 700H671ZM339 974L525 809L448 729L339 822L230 729L151 809L339 974Z"  />
<glyph unicode="&#x178;" horiz-adv-x="681" d="M671 700L422 298V0H259V298L10 700H190L305 511Q322 482 330 464T340 446H341Q342 446 350 464T376 511L491 700H671ZM464 768Q434 768 414 789T394 840Q394 871 414 892T464 913Q494 913 514 892T535 840Q535 810 515 789T464 768ZM211 768Q181 768 161 789T140 840Q140 871 160 892T211 913Q240 913 260 892T281 840Q281 810 261 789T211 768Z"  />
<glyph unicode="&#x179;" horiz-adv-x="659" d="M603 546L329 222Q306 195 287 175T268 153L269 152Q270 152 301 154T379 156H603V0H56V155L342 485Q351 495 362 506T382 526T397 541T404 547L402 548Q402 548 392 548T366 547T331 546T292 545H66V700H603V546ZM501 831L269 729L219 816L442 942L501 831Z"  />
<glyph unicode="&#x17A;" horiz-adv-x="659" d="M603 546L329 222Q306 195 287 175T268 153L269 152Q270 152 301 154T379 156H603V0H56V155L342 485Q351 495 362 506T382 526T397 541T404 547L402 548Q402 548 392 548T366 547T331 546T292 545H66V700H603V546ZM505 831L273 729L223 816L446 942L505 831Z"  />
<glyph unicode="&#x17B;" horiz-adv-x="659" d="M603 546L329 222Q306 195 287 175T268 153L269 152Q270 152 301 154T379 156H603V0H56V155L342 485Q351 495 362 506T382 526T397 541T404 547L402 548Q402 548 392 548T366 547T331 546T292 545H66V700H603V546ZM339 767Q309 767 289 788T268 840Q268 871 288 892T339 913Q368 913 388 892T409 840Q409 810 389 789T339 767Z"  />
<glyph unicode="&#x17C;" horiz-adv-x="659" d="M603 546L329 222Q306 195 287 175T268 153L269 152Q270 152 301 154T379 156H603V0H56V155L342 485Q351 495 362 506T382 526T397 541T404 547L402 548Q402 548 392 548T366 547T331 546T292 545H66V700H603V546ZM339 767Q309 767 289 788T268 840Q268 871 288 892T339 913Q368 913 388 892T409 840Q409 810 389 789T339 767Z"  />
<glyph unicode="&#x17D;" horiz-adv-x="659" d="M151 889L230 970L339 876L448 970L526 889L339 725L151 889ZM603 700H66V545H292Q311 545 330 545T365 546T391 547T402 548L404 547Q404 547 398 541T382 526T362 506T342 485L56 155V0H603V156H379Q332 156 301 154T269 152L268 153Q268 154 287 174T329 222L603 546V700Z"  />
<glyph unicode="&#x17E;" horiz-adv-x="659" d="M155 889L234 970L343 876L452 970L530 889L343 725L155 889ZM603 700H66V545H292Q311 545 330 545T365 546T391 547T402 548L404 547Q404 547 398 541T382 526T362 506T342 485L56 155V0H603V156H379Q332 156 301 154T269 152L268 153Q268 154 287 174T329 222L603 546V700Z"  />
<glyph unicode="&#x192;" horiz-adv-x="396" d="M33 423H139L164 596Q172 654 201 685Q228 714 271 723T375 724V648Q314 653 288 640T255 584L232 423H350V353H222L168 -32Q159 -95 128 -126Q105 -149 70 -155T-15 -155V-81Q22 -84 45 -75T74 -25L129 353H33V423Z"  />
<glyph unicode="&#x218;" horiz-adv-x="583" d="M285 -175L271 -174Q252 -171 236 -155T220 -110Q220 -81 240 -60T289 -39Q318 -39 338 -61T358 -119Q358 -140 350 -163T329 -209T297 -253T258 -291H204Q216 -284 227 -270T249 -239T265 -206T271 -179L285 -175ZM398 481Q384 527 352 549T284 571Q250 571 231 556T212 520Q212 504 223 492T253 468T300 445T360 419Q395 404 430 385T494 339T541 280T559 202Q559 155 541 116T488 48T407 3T302 -14Q246 -14 201 1T120 45T60 112T20 198L177 240Q183 219 194 200T222 167T260 143T307 134Q346 134 366 151T387 194Q387 214 375 228T340 253T289 276T225 302Q192 318 160 336T102 379T61 435T45 513Q45 551 63 587T113 651T191 697T293 714Q341 714 383 700T459 660T517 600T554 524L398 481Z"  />
<glyph unicode="&#x219;" horiz-adv-x="583" d="M285 -175L271 -174Q252 -171 236 -155T220 -110Q220 -81 240 -60T289 -39Q318 -39 338 -61T358 -119Q358 -140 350 -163T329 -209T297 -253T258 -291H204Q216 -284 227 -270T249 -239T265 -206T271 -179L285 -175ZM398 481Q384 527 352 549T284 571Q250 571 231 556T212 520Q212 504 223 492T253 468T300 445T360 419Q395 404 430 385T494 339T541 280T559 202Q559 155 541 116T488 48T407 3T302 -14Q246 -14 201 1T120 45T60 112T20 198L177 240Q183 219 194 200T222 167T260 143T307 134Q346 134 366 151T387 194Q387 214 375 228T340 253T289 276T225 302Q192 318 160 336T102 379T61 435T45 513Q45 551 63 587T113 651T191 697T293 714Q341 714 383 700T459 660T517 600T554 524L398 481Z"  />
<glyph unicode="&#x21A;" horiz-adv-x="572" d="M277 -174Q258 -171 242 -155T226 -110Q226 -81 246 -60T295 -39Q324 -39 344 -61T364 -119Q364 -140 356 -163T335 -209T303 -253T264 -291H210Q222 -284 233 -270T255 -239T271 -206T277 -179L291 -175L277 -174ZM562 700V545H367V0H203V545H10V700H562Z"  />
<glyph unicode="&#x21B;" horiz-adv-x="572" d="M245 -174Q226 -171 210 -155T194 -110Q194 -81 214 -60T263 -39Q292 -39 312 -61T332 -119Q332 -140 324 -163T303 -209T271 -253T232 -291H178Q190 -284 201 -270T223 -239T239 -206T245 -179L259 -175L245 -174ZM562 700V545H367V0H203V545H10V700H562Z"  />
<glyph unicode="&#x237;" horiz-adv-x="639" d="M576 700V295Q576 221 555 164T496 67T403 7T283 -14Q233 -14 190 -1T112 36T51 93T11 165L171 208Q202 141 283 141Q344 141 378 179T412 285V700H576Z"  />
<glyph unicode="&#x2C6;" horiz-adv-x="377" d="M173 974L360 809L282 729L173 822L64 729L-15 809L173 974Z"  />
<glyph unicode="&#x2C7;" horiz-adv-x="377" d="M-15 889L64 970L173 877L282 970L360 889L173 725L-15 889Z"  />
<glyph unicode="&#x2D8;" horiz-adv-x="348" d="M85 898Q90 876 108 860T155 844Q182 844 200 860T223 898H339Q333 864 316 836T275 786T220 754T155 742Q118 742 87 753T31 786T-10 835T-33 898H85Z"  />
<glyph unicode="&#x2D9;" horiz-adv-x="183" d="M74 767Q45 767 24 788T3 840Q3 871 24 892T74 913Q103 913 124 892T145 840Q145 810 124 789T74 767Z"  />
<glyph unicode="&#x2DA;" horiz-adv-x="300" d="M135 744Q158 744 173 760T188 798Q188 821 173 837T135 853Q114 853 99 837T83 798Q83 776 98 760T135 744ZM135 649Q105 649 78 660T31 692T-1 739T-13 797Q-13 828 -2 855T30 902T78 934T135 946Q165 946 192 934T239 902T270 855T282 797Q282 766 271 739T239 692T192 661T135 649Z"  />
<glyph unicode="&#x2DB;" horiz-adv-x="600" d="M423 -145Q395 -196 350 -221T256 -247Q218 -247 186 -237T129 -206T92 -155T78 -85Q78 -51 91 -23T122 25T160 55T193 66L300 0Q281 0 262 -5T228 -21T202 -47T192 -84Q192 -107 208 -125T258 -143Q282 -143 304 -129T338 -88L423 -145Z"  />
<glyph unicode="&#x2DC;" horiz-adv-x="506" d="M470 895Q470 862 459 834T427 786T380 754T320 742Q292 742 272 751T234 771T202 792T171 801Q151 801 140 789T129 759H5Q5 792 16 820T48 868T95 900T155 912Q183 912 204 903T243 883T274 862T304 853Q324 853 335 865T346 895H470Z"  />
<glyph unicode="&#x2DD;" horiz-adv-x="486" d="M221 729L188 787L55 729L5 816L228 942L266 870L394 942L453 831L221 729Z"  />
<glyph unicode="&#x326;" horiz-adv-x="0" d="M115 -175L101 -173Q82 -170 66 -154T50 -109Q50 -80 70 -60T119 -39Q148 -39 168 -61T188 -118Q188 -140 180 -163T159 -209T127 -253T88 -290H34Q46 -283 57 -269T79 -238T95 -206T101 -179L115 -175Z"  />
<glyph unicode="&#x1E80;" horiz-adv-x="997" d="M975 700L785 0H624L528 323Q520 350 515 373T506 413T501 440T499 450H498Q498 450 496 440T491 413T483 373T469 323L373 0H212L23 700H199L273 370Q279 344 283 321T291 279T296 251T298 240H299Q299 240 301 250T308 279T319 320T334 370L421 645H576L664 370Q672 344 678 321T688 279T695 251T698 240H700Q700 240 702 250T707 279T714 320T724 370L798 700H975ZM313 831L372 942L595 816L544 729L313 831Z"  />
<glyph unicode="&#x1E81;" horiz-adv-x="997" d="M975 700L785 0H624L528 323Q520 350 515 373T506 413T501 440T499 450H498Q498 450 496 440T491 413T483 373T469 323L373 0H212L23 700H199L273 370Q279 344 283 321T291 279T296 251T298 240H299Q299 240 301 250T308 279T319 320T334 370L421 645H576L664 370Q672 344 678 321T688 279T695 251T698 240H700Q700 240 702 250T707 279T714 320T724 370L798 700H975ZM305 831L364 942L587 816L536 729L305 831Z"  />
<glyph unicode="&#x1E82;" horiz-adv-x="997" d="M975 700L785 0H624L528 323Q520 350 515 373T506 413T501 440T499 450H498Q498 450 496 440T491 413T483 373T469 323L373 0H212L23 700H199L273 370Q279 344 283 321T291 279T296 251T298 240H299Q299 240 301 250T308 279T319 320T334 370L421 645H576L664 370Q672 344 678 321T688 279T695 251T698 240H700Q700 240 702 250T707 279T714 320T724 370L798 700H975ZM661 831L429 729L379 816L602 942L661 831Z"  />
<glyph unicode="&#x1E83;" horiz-adv-x="997" d="M975 700L785 0H624L528 323Q520 350 515 373T506 413T501 440T499 450H498Q498 450 496 440T491 413T483 373T469 323L373 0H212L23 700H199L273 370Q279 344 283 321T291 279T296 251T298 240H299Q299 240 301 250T308 279T319 320T334 370L421 645H576L664 370Q672 344 678 321T688 279T695 251T698 240H700Q700 240 702 250T707 279T714 320T724 370L798 700H975ZM653 831L421 729L371 816L594 942L653 831Z"  />
<glyph unicode="&#x1E84;" horiz-adv-x="997" d="M975 700L785 0H624L528 323Q520 350 515 373T506 413T501 440T499 450H498Q498 450 496 440T491 413T483 373T469 323L373 0H212L23 700H199L273 370Q279 344 283 321T291 279T296 251T298 240H299Q299 240 301 250T308 279T319 320T334 370L421 645H576L664 370Q672 344 678 321T688 279T695 251T698 240H700Q700 240 702 250T707 279T714 320T724 370L798 700H975ZM623 768Q593 768 573 789T553 840Q553 871 573 892T623 913Q653 913 673 892T694 840Q694 810 674 789T623 768ZM370 768Q340 768 320 789T299 840Q299 871 319 892T370 913Q399 913 419 892T440 840Q440 810 420 789T370 768Z"  />
<glyph unicode="&#x1E85;" horiz-adv-x="997" d="M975 700L785 0H624L528 323Q520 350 515 373T506 413T501 440T499 450H498Q498 450 496 440T491 413T483 373T469 323L373 0H212L23 700H199L273 370Q279 344 283 321T291 279T296 251T298 240H299Q299 240 301 250T308 279T319 320T334 370L421 645H576L664 370Q672 344 678 321T688 279T695 251T698 240H700Q700 240 702 250T707 279T714 320T724 370L798 700H975ZM615 768Q585 768 565 789T545 840Q545 871 565 892T615 913Q645 913 665 892T686 840Q686 810 666 789T615 768ZM362 768Q332 768 312 789T291 840Q291 871 311 892T362 913Q391 913 411 892T432 840Q432 810 412 789T362 768Z"  />
<glyph unicode="&#x1E9E;" horiz-adv-x="790" d="M701 700L605 518Q595 499 586 481T570 449T558 426T553 417L555 416H559Q599 416 635 400T698 355T741 290T757 212Q757 165 741 124T693 52T618 4T520 -14Q439 -14 379 23T287 120L442 162Q457 144 473 135T513 126Q555 126 574 150T594 211Q594 247 570 270T501 294H396V416L426 479Q438 505 448 525T459 546L458 547Q457 547 436 546T392 545H238V0H74V700H701Z"  />
<glyph unicode="&#x1EF2;" horiz-adv-x="681" d="M671 700L422 298V0H259V298L10 700H190L305 511Q322 482 330 464T340 446H341Q342 446 350 464T376 511L491 700H671ZM154 831L213 942L436 816L385 729L154 831Z"  />
<glyph unicode="&#x1EF3;" horiz-adv-x="681" d="M671 700L422 298V0H259V298L10 700H190L305 511Q322 482 330 464T340 446H341Q342 446 350 464T376 511L491 700H671ZM155 831L214 942L437 816L386 729L155 831Z"  />
<glyph unicode="&#x2007;" horiz-adv-x="651" />
<glyph unicode="&#x2009;" horiz-adv-x="113" />
<glyph unicode="&#x200A;" horiz-adv-x="40" />
<glyph unicode="&#x2013;" horiz-adv-x="548" d="M474 432V277H74V432H474Z"  />
<glyph unicode="&#x2014;" horiz-adv-x="966" d="M892 432V277H74V432H892Z"  />
<glyph unicode="&#x2018;" horiz-adv-x="316" d="M154 585L169 583Q189 580 207 562T225 513Q225 481 203 459T149 436Q118 436 96 460T74 523Q74 547 82 572T106 623T141 671T184 712H243Q230 704 217 689T194 655T176 620T169 590L154 585Z"  />
<glyph unicode="&#x2019;" horiz-adv-x="316" d="M162 563L147 565Q127 568 109 586T91 635Q91 667 113 689T167 712Q199 712 221 688T243 625Q243 601 234 576T210 525T175 477T133 436H74Q87 444 100 459T123 493T140 528T147 558L162 563Z"  />
<glyph unicode="&#x201A;" horiz-adv-x="316" d="M162 -5L147 -3Q127 0 109 18T91 67Q91 99 113 121T167 144Q199 144 221 120T243 57Q243 33 234 8T210 -43T175 -91T133 -132H74Q87 -124 100 -109T123 -75T140 -40T147 -10L162 -5Z"  />
<glyph unicode="&#x201C;" horiz-adv-x="533" d="M371 585L386 583Q407 580 424 562T442 513Q442 481 420 459T366 436Q335 436 313 459T291 523Q291 547 299 572T323 622T358 670T401 712H460Q447 704 434 689T411 655T393 619T386 589L371 585ZM154 585L169 583Q189 580 207 562T225 513Q225 481 203 459T149 436Q118 436 96 460T74 523Q74 547 82 572T106 623T141 671T184 712H243Q230 704 217 689T194 655T176 620T169 590L154 585Z"  />
<glyph unicode="&#x201D;" horiz-adv-x="533" d="M379 563L365 565Q344 568 326 586T308 635Q308 667 330 689T384 712Q416 712 438 688T460 625Q460 601 451 576T427 525T392 477T350 436H291Q304 444 317 459T340 493T358 528T365 558L379 563ZM162 563L147 565Q127 568 109 586T91 635Q91 667 113 689T167 712Q199 712 221 688T243 625Q243 601 234 576T210 525T175 477T133 436H74Q87 444 100 459T123 493T140 528T147 558L162 563Z"  />
<glyph unicode="&#x201E;" horiz-adv-x="534" d="M380 -5L365 -3Q344 0 327 18T309 67Q309 99 331 121T385 144Q416 144 438 120T460 57Q460 33 451 8T427 -43T392 -91T350 -132H291Q304 -124 317 -109T340 -75T358 -40T365 -10L380 -5ZM162 -5L147 -3Q127 0 109 18T91 67Q91 99 113 121T167 144Q199 144 221 120T243 57Q243 33 234 8T210 -43T175 -91T133 -132H74Q87 -124 100 -109T123 -75T140 -40T147 -10L162 -5Z"  />
<glyph unicode="&#x2020;" horiz-adv-x="496" d="M486 402H320V304Q320 240 317 185T311 88T304 24T300 0H194Q194 0 191 23T184 88T177 184T174 304V402H10V540H174V700H320V540H486V402Z"  />
<glyph unicode="&#x2021;" horiz-adv-x="496" d="M320 304V300H486V162H316Q311 89 306 45T300 0H194Q193 0 188 44T178 162H10V300H174V304V402H10V540H174V700H320V540H486V402H320V304Z"  />
<glyph unicode="&#x2022;" horiz-adv-x="394" d="M198 226Q172 226 149 236T110 263T84 304T74 355Q74 382 83 405T109 445T149 472T198 482Q223 482 245 473T284 446T310 405T320 355Q320 328 311 304T285 263T246 236T198 226Z"  />
<glyph unicode="&#x2026;" horiz-adv-x="714" d="M598 -13Q571 -13 553 6T534 51Q534 78 552 96T598 115Q624 115 642 97T660 51Q660 25 642 6T598 -13ZM354 -13Q328 -13 310 6T291 51Q291 78 309 96T354 115Q380 115 398 97T416 51Q416 25 398 6T354 -13ZM116 -13Q90 -13 72 6T53 51Q53 78 71 96T116 115Q142 115 160 97T179 51Q179 25 161 6T116 -13Z"  />
<glyph unicode="&#x2030;" horiz-adv-x="1265" d="M1065 100Q1094 100 1110 126T1126 193Q1126 235 1110 261T1065 287Q1037 287 1020 261T1003 193Q1003 153 1020 127T1065 100ZM680 100Q709 100 725 126T741 193Q741 235 725 261T680 287Q652 287 635 261T618 193Q618 153 635 127T680 100ZM1065 -8Q1027 -8 996 7T943 48T909 112T897 193Q897 238 909 275T943 338T996 380T1065 395Q1102 395 1133 380T1186 339T1220 275T1232 193Q1232 149 1220 112T1186 49T1133 7T1065 -8ZM680 -8Q642 -8 611 7T558 48T524 112T512 193Q512 238 524 275T558 338T611 380T680 395Q717 395 748 380T801 339T835 275T847 193Q847 149 835 112T801 49T748 7T680 -8ZM201 413Q230 413 246 439T262 506Q262 548 246 574T201 600Q173 600 156 574T139 506Q139 466 156 440T201 413ZM621 700H725L260 0H155L621 700ZM201 305Q163 305 132 320T79 361T45 425T33 506Q33 551 45 588T79 651T132 693T201 708Q238 708 269 693T322 652T356 588T368 506Q368 462 356 425T322 362T269 320T201 305Z"  />
<glyph unicode="&#x2039;" horiz-adv-x="456" d="M288 585L381 499L243 352L382 204L288 118L74 352L288 585Z"  />
<glyph unicode="&#x203A;" horiz-adv-x="456" d="M382 352L168 118L74 204L213 352L74 499L167 585L382 352Z"  />
<glyph unicode="&#x2044;" horiz-adv-x="123" d="M242 700H346L-119 0H-224L242 700Z"  />
<glyph unicode="&#x20AC;" horiz-adv-x="742" d="M717 193Q680 96 601 42T415 -13Q358 -13 308 3T218 51T148 127T102 228H33V334H86V350V366H34V472H102Q118 528 147 572T217 648T308 696T415 713Q514 713 589 664T706 528L543 486Q521 521 488 537T414 554Q369 554 334 533T275 472H427V366H246V350V334H426V228H277Q300 190 336 169T416 148Q461 148 498 169T557 234L717 193Z"  />
<glyph unicode="&#x20B9;" horiz-adv-x="578" d="M436 573Q448 552 454 528H553V406H455Q441 346 400 304T296 242L470 0H283L122 234V354H200Q226 354 246 368T278 406H74V528H278Q266 548 246 560T200 573H74V700H553V573H436Z"  />
<glyph unicode="&#x2116;" horiz-adv-x="1033" d="M1013 313V214H715V313H1013ZM801 540Q801 502 819 483T864 463Q891 463 909 482T927 540Q927 579 909 598T864 618Q837 618 819 599T801 540ZM655 700V0H505L367 212Q346 242 323 277T280 341T247 390T234 410H232Q232 410 232 392T234 339T236 259T237 155V0H74V700H224L370 479Q385 456 406 425T447 365T481 316T495 295H496Q496 295 496 315T495 368T493 446T492 540V700H655ZM705 540Q705 579 717 611T750 665T801 700T864 712Q897 712 926 700T976 666T1010 611T1023 540Q1023 501 1011 470T977 416T926 381T864 369Q830 369 801 381T751 415T717 469T705 540Z"  />
<glyph unicode="&#x2122;" horiz-adv-x="745" d="M679 700V375H586V464Q586 502 589 527T592 553H591Q590 553 578 534T552 491L529 453H490L466 491Q451 516 440 534T428 553H427Q426 553 429 528T433 464V375H340V700H429L478 621Q495 592 501 573T509 554H510Q511 554 517 573T540 621L590 700H679ZM10 700H294V605H201V375H103V605H10V700Z"  />
<glyph unicode="&#x215B;" horiz-adv-x="735" d="M530 113Q530 93 544 81T582 68Q605 68 619 81T633 113Q633 132 619 144T582 157Q559 157 545 144T530 113ZM537 289Q537 272 550 262T582 252Q602 252 614 262T626 289Q626 305 614 315T582 325Q562 325 550 315T537 289ZM654 205Q665 201 677 194T700 174T717 146T724 110Q724 59 685 26T582 -8Q550 -8 524 1T479 26T450 63T439 110Q439 130 446 146T463 174T486 193T510 205V206Q502 209 493 215T475 233T462 258T456 290Q456 312 465 331T491 365T531 387T582 395Q637 395 672 365T707 290Q707 273 702 259T688 234T671 216T654 206V205ZM536 700H640L175 0H70L536 700ZM222 700V313H120V490Q120 520 123 544T127 570H126Q124 570 117 558T94 532L76 516L11 573L150 700H222Z"  />
<glyph unicode="&#x215C;" horiz-adv-x="785" d="M580 113Q580 93 594 81T632 68Q655 68 669 81T683 113Q683 132 669 144T632 157Q609 157 595 144T580 113ZM587 289Q587 272 600 262T632 252Q652 252 664 262T676 289Q676 305 664 315T632 325Q612 325 600 315T587 289ZM704 205Q715 201 727 194T750 174T767 146T774 110Q774 59 735 26T632 -8Q600 -8 574 1T529 26T500 63T489 110Q489 130 496 146T513 174T536 193T560 205V206Q552 209 543 215T525 233T512 258T506 290Q506 312 515 331T541 365T581 387T632 395Q687 395 722 365T757 290Q757 273 752 259T738 234T721 216T704 206V205ZM587 700H691L226 0H121L587 700ZM23 595Q34 649 72 678T168 708Q196 708 220 700T263 677T291 641T302 594Q302 574 294 559T275 533T252 518T229 512V511Q242 511 256 506T282 490T301 464T309 427Q309 401 299 379T269 340T225 314T168 305Q139 305 114 314T69 338T36 373T18 417L107 441Q112 421 125 408T167 394Q187 394 199 405T212 433Q212 452 199 463T165 474H132V548H164Q181 548 193 559T205 586Q205 601 194 611T165 621Q143 621 130 610T109 573L23 595Z"  />
<glyph unicode="&#x215D;" horiz-adv-x="765" d="M611 68Q634 68 648 81T662 113Q662 132 648 144T611 157Q588 157 574 144T559 113Q559 93 573 81T611 68ZM611 325Q591 325 579 315T566 289Q566 272 579 262T611 252Q631 252 643 262T655 289Q655 305 643 315T611 325ZM683 205Q694 201 706 194T729 174T746 146T753 110Q753 59 714 26T611 -8Q579 -8 553 1T508 26T479 63T468 110Q468 130 475 146T492 174T515 193T539 205V206Q531 209 522 215T504 233T491 258T485 290Q485 312 494 331T520 365T560 387T611 395Q666 395 701 365T736 290Q736 273 731 259T717 234T700 216T683 206V205ZM671 700L206 0H101L567 700H671ZM121 556Q126 561 135 566T164 571Q225 571 262 535T300 442Q300 413 290 388T261 345T217 316T161 305Q130 305 105 314T62 339T33 374T18 412L109 437Q113 422 124 408T157 394Q180 394 193 407T207 443Q207 466 194 479T157 492Q127 492 114 466L29 489L67 700H278V609H138Q133 586 127 572T120 557L121 556Z"  />
<glyph unicode="&#x215E;" horiz-adv-x="685" d="M480 113Q480 93 494 81T532 68Q555 68 569 81T583 113Q583 132 569 144T532 157Q509 157 495 144T480 113ZM487 289Q487 272 500 262T532 252Q552 252 564 262T576 289Q576 305 564 315T532 325Q512 325 500 315T487 289ZM604 205Q615 201 627 194T650 174T667 146T674 110Q674 59 635 26T532 -8Q500 -8 474 1T429 26T400 63T389 110Q389 130 396 146T413 174T436 193T460 205V206Q452 209 443 215T425 233T412 258T406 290Q406 312 415 331T441 365T481 387T532 395Q587 395 622 365T657 290Q657 273 652 259T638 234T621 216T604 206V205ZM487 700H591L126 0H21L487 700ZM294 700V643L128 313H27L141 540Q158 573 172 591T186 611L184 612Q183 612 162 611T111 609H10V700H294Z"  />
<glyph unicode="&#x2212;" horiz-adv-x="651" d="M539 422V287H113V422H539Z"  />
<glyph unicode="&#x2260;" horiz-adv-x="651" d="M417 397L369 293H539V158H306L261 60H130L176 158H113V293H239L288 397H113V532H351L402 640H530L480 532H539V397H417Z"  />
<glyph unicode="&#x2264;" horiz-adv-x="651" d="M462 194H276L108 367L347 611H529L301 367L462 194ZM537 126V-9H111V126H537Z"  />
<glyph unicode="&#x2265;" horiz-adv-x="651" d="M540 126V-9H114V126H540ZM350 367L122 611H304L543 367L375 194H189L350 367Z"  />
<glyph unicode="&#x25CA;" horiz-adv-x="692" d="M181 350L346 175L511 350L346 526L181 350ZM3 350L346 714L689 350L346 -14L3 350Z"  />


</font>
</defs>
</svg>
