<?xml  version="1.0" encoding="UTF-8"?>
<!DOCTYPE svg PUBLIC "-//W3C//DTD SVG 1.0//EN" "http://www.w3.org/TR/2001/REC-SVG-20010904/DTD/svg10.dtd" >
<svg xmlns="http://www.w3.org/2000/svg" >
<metadata>
<version>1.0</version>
<id><![CDATA[Rockwell W02 Bold]]></id>
<vendor>Monotype Imaging Inc.</vendor>
<credits>
<name>Fonts.com WebFonts</name>
<URL>http://webfonts.fonts.com</URL>
<role>Home of the Web fonts</role>
</credits>
<license>
<URL>http://webfonts.fonts.com/Legal</URL>
</license>
<copyright><![CDATA[Copyright 1990, 2002 Adobe Systems Incorporated. All Rights Reserved.  Copyright 1989, 1990, 2002 The Monotype Corporation Plc. All Rights Reserved.]]></copyright>
<trademark><![CDATA[Rockwell is a registered trademark of The Monotype Corporation in the United States and/or other countries.]]></trademark>
<licensee>
<name></name>
</licensee>
</metadata>
<defs >
<font horiz-adv-x="1217" id="0d9be645-c58b-4cef-b53a-93dca0a3528d">
<font-face font-family="" panose-1="2 6 8 3 3 4 5 2 1 3" ascent="2323" descent="-677" units-per-em="2048" alphabetic="0">
</font-face>
<missing-glyph horiz-adv-x="2048" d="M256 0V1536H1792V0H256ZM384 128H1664V1408H384V128Z"  />

<glyph unicode="&#xA;" />
<glyph unicode="&#xD;" horiz-adv-x="512" />
<glyph unicode=" " horiz-adv-x="512" />
<glyph unicode="!" horiz-adv-x="725" d="M288 485L202 1010V1391H511V1010L432 485H288ZM195 0V335H530V0H195Z"  />
<glyph unicode="&quot;" horiz-adv-x="1130" d="M349 749H301L196 1132Q176 1203 176 1260Q176 1327 218 1371T323 1415Q387 1415 429 1371T472 1272Q472 1224 448 1132L349 749ZM831 749H783L678 1132Q659 1203 659 1260Q659 1327 701 1371T806 1415Q870 1415 912 1371T954 1272Q954 1224 930 1132L831 749Z"  />
<glyph unicode="#" horiz-adv-x="1368" d="M378 1052L456 1424H672L593 1052H922L1001 1424H1216L1138 1052H1294V836H1093L1035 561H1294V345H990L912 -27H696L774 345H445L367 -27H151L229 345H74V561H275L332 836H74V1052H378ZM877 836H548L490 561H819L877 836Z"  />
<glyph unicode="$" horiz-adv-x="1153" d="M617 -179H476V-4Q319 17 214 106T93 408H340Q339 397 339 392Q339 322 375 270T476 201V625Q264 723 190 818T116 1028Q116 1166 215 1264T476 1375V1427H617V1375Q791 1361 894 1263T997 1007H751Q734 1164 617 1177V844L753 783Q868 731 936 665T1031 526T1058 380Q1058 219 939 110T617 -4V-179ZM476 1176Q363 1155 363 1058Q363 975 476 908V1176ZM617 192Q703 191 758 240T814 357Q814 488 617 564V192Z"  />
<glyph unicode="%" horiz-adv-x="1898" d="M431 671Q137 671 137 1043Q137 1415 432 1415Q577 1415 651 1319T725 1043Q725 671 431 671ZM429 799Q514 799 514 1042Q514 1287 431 1287Q348 1287 348 1044Q348 799 429 799ZM356 0L1363 1391H1542L535 0H356ZM1464 -18Q1170 -18 1170 354Q1170 726 1465 726Q1610 726 1684 629T1758 354Q1758 -18 1464 -18ZM1462 110Q1546 110 1546 353Q1546 598 1464 598Q1381 598 1381 355Q1381 110 1462 110Z"  />
<glyph unicode="&amp;" horiz-adv-x="1642" d="M1559 223V0H1147L1021 154Q822 -24 572 -24Q345 -24 211 103T76 403Q76 536 161 643T460 852Q351 978 351 1105Q351 1253 461 1333T730 1413Q890 1413 996 1333T1102 1129Q1102 936 860 813L1058 562Q1170 714 1230 851H1559V628H1389Q1313 470 1221 366L1335 223H1559ZM721 988Q855 1048 855 1127Q855 1168 822 1198T741 1228Q696 1228 663 1203T629 1140Q629 1102 721 988ZM601 681Q394 595 394 448Q394 365 459 302T628 238Q748 238 866 347L601 681Z"  />
<glyph unicode="&apos;" horiz-adv-x="575" d="M313 749H265L160 1132Q140 1203 140 1260Q140 1327 182 1371T287 1415Q351 1415 393 1371T436 1272Q436 1224 412 1132L313 749Z"  />
<glyph unicode="(" horiz-adv-x="705" d="M648 1410V1211Q518 1143 465 975T411 487Q411 162 465 -4T648 -238V-437Q415 -353 255 -117T94 487Q94 860 256 1093T648 1410Z"  />
<glyph unicode=")" horiz-adv-x="705" d="M58 -437V-238Q188 -170 241 -2T295 487Q295 811 241 977T58 1211V1410Q291 1326 451 1090T612 487Q612 121 452 -116T58 -437Z"  />
<glyph unicode="*" horiz-adv-x="1174" d="M986 558L787 419L682 558Q680 658 586 799Q502 666 502 558L405 419L204 558L302 698Q398 726 511 859Q500 860 456 869Q390 882 342 882Q291 882 248 871L80 927L161 1161L328 1106Q376 1031 536 955Q518 1136 464 1220V1391H708V1220Q637 1113 637 955Q822 1044 856 1106L1017 1161L1095 927L940 871Q885 886 836 886Q779 886 669 859Q769 737 883 698L986 558Z"  />
<glyph unicode="+" horiz-adv-x="1368" d="M122 823H560V1261H808V823H1246V574H808V136H560V574H122V823Z"  />
<glyph unicode="&#x2c;" horiz-adv-x="725" d="M196 -366V-216Q360 -199 360 -18V0H196V335H530V24Q530 -126 498 -207T388 -327T196 -366Z"  />
<glyph unicode="-" horiz-adv-x="705" d="M73 349V619H632V349H73Z"  />
<glyph unicode="." horiz-adv-x="725" d="M195 0V335H530V0H195Z"  />
<glyph unicode="/" horiz-adv-x="1040" d="M748 1415H1032L294 -17H9L748 1415Z"  />
<glyph unicode="0" horiz-adv-x="1130" d="M565 -18Q332 -18 210 166T87 699Q87 1040 206 1227T565 1415Q803 1415 923 1229T1043 699Q1043 350 920 166T565 -18ZM563 208Q670 208 698 378T726 699Q726 941 689 1065T565 1190Q478 1190 441 1063T404 698Q404 456 441 332T563 208Z"  />
<glyph unicode="1" horiz-adv-x="1130" d="M233 0V223H425V1168H221V1391H731V223H913V0H233Z"  />
<glyph unicode="2" horiz-adv-x="1130" d="M1001 404L989 0H98Q98 182 127 282T224 476T413 682Q572 828 622 896T673 1051Q673 1115 635 1156T540 1198Q457 1198 418 1130T372 906L117 918Q117 1119 177 1221T340 1369T564 1415Q763 1415 876 1305T990 1031Q990 943 956 869T869 744T683 598Q483 455 432 371T372 223H777V404H1001Z"  />
<glyph unicode="3" horiz-adv-x="1130" d="M73 425L341 447Q346 202 525 202Q606 202 657 261T708 411Q708 500 658 559T508 619Q484 619 446 617V851Q565 851 619 904T673 1035Q673 1103 632 1146T525 1190Q377 1190 377 1006L116 1026Q124 1215 242 1315T543 1415Q748 1415 861 1317T975 1049Q975 828 767 733Q1025 649 1025 401Q1025 204 892 93T554 -18Q107 -18 73 425Z"  />
<glyph unicode="4" horiz-adv-x="1130" d="M1030 204V0H472V204H626V383H115Q79 490 41 561L639 1415H913V573H1048V383H913V204H1030ZM626 573V1058L280 573H626Z"  />
<glyph unicode="5" horiz-adv-x="1130" d="M73 374L336 405Q363 205 520 205Q610 205 658 265T707 437Q707 684 526 684Q426 684 359 575L136 686L177 1391H958V1064H755L736 1168H378L359 834Q469 913 596 913Q800 913 912 781T1025 458Q1025 255 905 119T540 -18Q331 -18 215 88T73 374Z"  />
<glyph unicode="6" horiz-adv-x="1130" d="M1020 1045L781 1023Q739 1200 619 1200Q522 1200 468 1090T411 800Q508 892 657 892Q818 892 928 781T1038 459Q1038 224 921 103T611 -18Q357 -18 234 151T110 684Q110 1072 249 1243T630 1415Q976 1415 1020 1045ZM411 604Q416 373 465 289T606 204Q673 204 714 264T756 442Q756 552 707 608T585 664Q496 664 411 604Z"  />
<glyph unicode="7" horiz-adv-x="1130" d="M864 223V0H193V223H369Q378 427 484 710T719 1174H361V979H139V1391H1008V1220Q903 1095 796 781T688 223H864Z"  />
<glyph unicode="8" horiz-adv-x="1130" d="M811 730Q1054 638 1054 386Q1054 201 930 92T564 -18Q323 -18 202 98T80 392Q80 637 328 730Q122 846 122 1050Q122 1213 241 1314T568 1415Q782 1415 897 1315T1013 1056Q1013 847 811 730ZM730 1013Q730 1096 688 1147T568 1199Q496 1199 451 1151T405 1010Q405 932 448 880T568 828Q642 828 686 879T730 1013ZM759 413Q759 510 707 571T569 633Q487 633 434 573T380 413Q380 314 433 257T569 199Q652 199 705 256T759 413Z"  />
<glyph unicode="9" horiz-adv-x="1130" d="M115 356L352 379Q394 201 512 201Q698 201 724 597Q614 510 465 510Q310 510 201 626T91 945Q91 1149 209 1282T537 1415Q771 1415 897 1250T1023 701Q1023 -18 511 -18Q344 -18 237 76T115 356ZM724 797V812Q724 972 674 1083T519 1194Q454 1194 414 1132T373 963Q373 865 416 799T548 733Q630 733 724 797Z"  />
<glyph unicode=":" horiz-adv-x="725" d="M195 635V968H530V635H195ZM195 0V335H530V0H195Z"  />
<glyph unicode=";" horiz-adv-x="725" d="M195 642V977H530V642H195ZM195 -366V-216Q359 -199 359 -18V0H195V335H530V24Q530 -120 499 -202T391 -325T195 -366Z"  />
<glyph unicode="&lt;" horiz-adv-x="1368" d="M1246 120L122 586V811L1246 1277V1012L468 699L1246 385V120Z"  />
<glyph unicode="=" horiz-adv-x="1368" d="M122 1064H1246V816H122V1064ZM122 581H1246V333H122V581Z"  />
<glyph unicode="&gt;" horiz-adv-x="1368" d="M122 1277L1246 811V586L122 120V385L900 699L122 1012V1277Z"  />
<glyph unicode="?" horiz-adv-x="1153" d="M596 481H453L424 849Q474 831 528 831Q616 831 679 879T743 1016Q743 1099 689 1149T553 1200Q464 1200 420 1153T376 1034Q376 1016 381 992H72Q72 1098 113 1189T275 1347T573 1415Q812 1415 936 1299T1061 1007Q1061 835 950 730T674 625Q659 625 629 627L596 481ZM355 0V335H690V0H355Z"  />
<glyph unicode="@" horiz-adv-x="2005" d="M1778 -1H1991Q1887 -218 1655 -334T1123 -450Q594 -450 328 -199T62 461Q62 750 194 987T556 1348T1088 1472Q1471 1472 1704 1256T1938 708Q1938 418 1747 200T1282 -19Q1125 -19 1095 95Q980 -19 820 -19Q649 -19 544 99T439 408Q439 649 591 856T978 1064Q1158 1064 1243 929L1268 1040H1532L1381 323Q1367 254 1367 234Q1367 185 1406 185Q1455 185 1539 249T1691 439T1758 711Q1758 946 1586 1117T1082 1289Q838 1289 648 1192T351 889T244 450Q244 133 462 -66T1088 -266Q1573 -266 1778 -1ZM697 388Q697 289 747 227T876 164Q1017 164 1102 320T1188 656Q1188 748 1142 816T1003 885Q866 885 782 737T697 388Z"  />
<glyph unicode="A" horiz-adv-x="1430" d="M1432 235V0H748V235H926L860 474H499L425 235H611V0H-5V235H167L438 1156H253V1391H1161V1156H974L1266 235H1432ZM803 678L687 1097L562 678H803Z"  />
<glyph unicode="B" horiz-adv-x="1430" d="M68 0V235H239V1156H68V1391H703Q914 1391 1017 1367T1195 1248T1270 1026Q1270 823 1074 739Q1324 646 1324 406Q1324 268 1247 170T1047 36T703 0H68ZM601 842H703Q809 842 859 878T909 1005Q909 1088 861 1122T691 1156H601V842ZM601 235H703Q842 235 897 275T952 416Q952 522 893 564T703 607H601V235Z"  />
<glyph unicode="C" horiz-adv-x="1599" d="M1251 1391H1486V901H1251Q1151 1165 904 1165Q700 1165 596 1026T491 693Q491 490 601 365T883 239Q1023 239 1128 334T1270 598L1544 467Q1388 -17 857 -17Q482 -17 292 185T101 696Q101 916 200 1081T466 1329T834 1413Q1083 1413 1251 1283V1391Z"  />
<glyph unicode="D" horiz-adv-x="1642" d="M48 0V235H259V1156H48V1391H707Q915 1391 1042 1366T1285 1253T1471 1018T1541 692Q1541 547 1492 416T1371 204T1197 76T1012 14T750 0H48ZM620 235H707Q865 235 957 276T1106 420T1162 691Q1162 850 1106 961T953 1114T707 1156H620V235Z"  />
<glyph unicode="E" horiz-adv-x="1366" d="M68 0V235H235V1156H68V1391H1294V950H1028V1156H597V835H945V600H597V235H1028V443H1294V0H68Z"  />
<glyph unicode="F" horiz-adv-x="1323" d="M58 0V235H257V1156H58V1391H1303V962H1037V1156H619V834H920V599H619V235H833V0H58Z"  />
<glyph unicode="G" horiz-adv-x="1729" d="M982 467V702H1634Q1634 449 1543 301T1277 68T885 -17Q508 -17 307 185T105 698Q105 914 205 1079T474 1329T841 1413Q1121 1413 1277 1277V1391H1513V897H1277Q1240 1022 1130 1094T894 1166Q728 1166 611 1049T494 723Q494 485 613 361T903 236Q1029 236 1112 297T1227 467H982Z"  />
<glyph unicode="H" horiz-adv-x="1556" d="M63 0V235H237V1156H63V1391H735V1156H589V851H968V1156H827V1391H1495V1156H1320V235H1495V0H827V235H968V615H589V235H735V0H63Z"  />
<glyph unicode="I" horiz-adv-x="874" d="M45 0V235H256V1156H45V1391H831V1156H618V235H831V0H45Z"  />
<glyph unicode="J" horiz-adv-x="831" d="M-14 -403V-151Q45 -168 90 -168Q173 -168 209 -122T245 40V1156H38V1391H796V1156H607V27Q607 -205 495 -316T195 -428Q101 -428 -14 -403Z"  />
<glyph unicode="K" horiz-adv-x="1599" d="M41 0V235H228V1156H41V1391H766V1156H590V235H752V0H41ZM860 0V235H1022L601 730L1055 1156H889V1391H1568V1156H1398L1006 772L1462 235H1606V0H860Z"  />
<glyph unicode="L" horiz-adv-x="1323" d="M57 0V235H256V1156H57V1391H821V1156H618V235H1029V665H1300V0H57Z"  />
<glyph unicode="M" horiz-adv-x="2134" d="M56 0V235H236V1156H56V1391H753L1059 575L1366 1391H2077V1156H1897V235H2077V0H1377V235H1545V1156H1512L1081 0H931L495 1156H462V235H644V0H56Z"  />
<glyph unicode="N" horiz-adv-x="1622" d="M55 0V235H241V1156H55V1391H638L1151 523V1156H970V1391H1594V1156H1399V-10H1089L489 1021V235H664V0H55Z"  />
<glyph unicode="O" horiz-adv-x="1749" d="M874 1413Q1234 1413 1440 1205T1647 698Q1647 398 1440 191T874 -17Q501 -17 301 196T101 698Q101 996 306 1204T874 1413ZM874 1159Q714 1159 603 1039T491 687Q491 482 601 359T874 236Q1034 236 1146 356T1258 704Q1258 907 1151 1033T874 1159Z"  />
<glyph unicode="P" horiz-adv-x="1366" d="M794 235V0H61V235H238V1156H61V1391H794Q1050 1391 1189 1271T1329 948Q1329 832 1280 738T1155 593T980 524T733 505H600V235H794ZM600 737H654Q840 737 893 797T947 948Q947 1024 910 1077T825 1143T668 1156H600V737Z"  />
<glyph unicode="Q" horiz-adv-x="1749" d="M664 3Q409 58 255 249T101 698Q101 985 300 1199T874 1413Q1248 1413 1447 1199T1647 698Q1647 409 1456 207T948 -15Q1015 -39 1081 -67Q1222 -127 1326 -127Q1350 -127 1383 -124L1298 -347Q1274 -349 1262 -349Q1195 -349 1133 -328T935 -240Q792 -169 710 -169Q605 -169 506 -253L417 -114Q498 -18 664 3ZM874 1159Q714 1159 603 1039T491 687Q491 482 601 359T874 236Q1034 236 1146 356T1258 704Q1258 907 1151 1033T874 1159Z"  />
<glyph unicode="R" horiz-adv-x="1493" d="M1497 235V0H1073L759 609H600V235H774V0H47V235H238V1156H47V1391H886Q1123 1391 1227 1272T1332 1001Q1332 764 1091 655L1317 235H1497ZM600 831H724Q954 831 954 995Q954 1076 902 1116T757 1156H600V831Z"  />
<glyph unicode="S" horiz-adv-x="1087" d="M89 0V474H325Q329 344 393 283T539 221Q604 221 647 265T691 370Q691 434 648 477T491 577Q250 694 164 783T77 1023Q77 1205 191 1305T450 1405Q616 1405 707 1276V1391H942V968H707Q696 1066 640 1119T508 1173Q451 1173 411 1142T370 1061Q370 1019 404 980T596 870Q750 801 832 746T963 602T1011 397Q1011 188 889 86T607 -17Q424 -17 325 118V0H89Z"  />
<glyph unicode="T" horiz-adv-x="1386" d="M302 0V235H511V1156H302V832H63V1391H1324V832H1088V1156H873V235H1082V0H302Z"  />
<glyph unicode="U" horiz-adv-x="1386" d="M37 1156V1391H701V1156H564V527Q564 401 574 346T630 254T744 218Q815 218 862 252T922 337T936 545V1156H801V1391H1355V1156H1185V460Q1185 318 1170 254T1101 126T945 23T709 -17Q555 -17 447 26T285 142T217 285T202 527V1156H37Z"  />
<glyph unicode="V" horiz-adv-x="1430" d="M577 -9L163 1156H-3V1391H707V1156H527L761 459L996 1156H819V1391H1434V1156H1265L866 -9H577Z"  />
<glyph unicode="W" horiz-adv-x="2028" d="M542 -9L145 1156H-2V1391H625V1156H481L707 488L919 1156H793V1391H1293V1156H1164L1392 488L1611 1156H1472V1391H2029V1156H1878L1494 -9H1234L1015 626L808 -9H542Z"  />
<glyph unicode="X" horiz-adv-x="1516" d="M-3 0V235H202L541 714L202 1156H11V1391H726V1169H593L800 910L988 1169H862V1391H1479V1156H1286L956 699L1320 235H1520V0H782V226H921L703 511L496 226H639V0H-3Z"  />
<glyph unicode="Y" horiz-adv-x="1430" d="M347 0V235H542V611L165 1156H-5V1391H691V1156H554L758 816L965 1156H822V1391H1435V1156H1264L904 611V235H1098V0H347Z"  />
<glyph unicode="Z" horiz-adv-x="1323" d="M102 0V235L762 1156H375V903H139V1391H1213V1182L534 235H992V502H1227V0H102Z"  />
<glyph unicode="[" horiz-adv-x="854" d="M226 -416V1391H790V1183H535V-209H790V-416H226Z"  />
<glyph unicode="\" horiz-adv-x="1040" d="M293 1415L1032 -17H747L9 1415H293Z"  />
<glyph unicode="]" horiz-adv-x="854" d="M628 1391V-416H64V-209H319V1183H64V1391H628Z"  />
<glyph unicode="^" horiz-adv-x="1194" d="M114 592L490 1391H713L1079 592H795L597 1081L400 592H114Z"  />
<glyph unicode="_" horiz-adv-x="1024" d="M-12 -154H1036V-256H-12V-154Z"  />
<glyph unicode="`" horiz-adv-x="682" d="M495 1095H330L-33 1413H342L495 1095Z"  />
<glyph unicode="a" horiz-adv-x="1194" d="M1165 223V0H700V76Q575 -14 436 -14Q293 -14 188 68T83 288Q83 427 193 521T477 615Q574 615 700 566V625Q700 699 650 746T516 794Q412 794 338 718L89 763Q197 992 558 992Q709 992 805 956T942 861T996 753T1009 576V223H1165ZM700 358Q588 428 521 428Q465 428 423 396T381 307Q381 255 416 217T506 178Q592 178 700 279V358Z"  />
<glyph unicode="b" horiz-adv-x="1280" d="M506 1391V859Q622 992 781 992Q967 992 1083 851T1200 490Q1200 255 1084 121T789 -14Q629 -14 506 111V0H29V223H197V1168H29V1391H506ZM883 492Q883 616 832 679T697 742Q617 742 560 680T503 478Q503 360 556 293T694 226Q775 226 829 291T883 492Z"  />
<glyph unicode="c" horiz-adv-x="1153" d="M1073 968V575H853Q778 737 618 737Q516 737 456 670T395 489Q395 352 459 287T616 221Q690 221 756 263T862 376L1102 270Q968 -22 632 -22Q379 -22 229 116T78 485Q78 716 225 849T569 983Q726 983 862 888V968H1073Z"  />
<glyph unicode="d" horiz-adv-x="1280" d="M1244 223V0H776V115Q647 -14 496 -14Q315 -14 196 133T77 489Q77 701 199 846T497 992Q666 992 776 861V1168H625V1391H1085V223H1244ZM779 486Q779 625 720 684T584 743Q493 743 444 673T394 487Q394 378 443 304T585 229Q662 229 720 289T779 486Z"  />
<glyph unicode="e" horiz-adv-x="1174" d="M853 292L1093 215Q942 -22 621 -22Q362 -22 220 113T78 468Q78 692 226 842T603 992Q816 992 960 849T1105 420H384Q391 288 467 233T629 178Q740 178 853 292ZM794 592Q785 677 729 732T587 787Q417 787 389 592H794Z"  />
<glyph unicode="f" horiz-adv-x="725" d="M665 223V0H64V223H204V744H74V968H204V1057Q204 1210 298 1312T580 1415Q807 1415 903 1279L679 1104Q649 1208 593 1208Q513 1208 513 1074V968H665V744H513V223H665Z"  />
<glyph unicode="g" horiz-adv-x="1280" d="M1246 968V744H1086V29Q1086 -450 580 -450Q290 -450 148 -345L298 -140Q415 -212 533 -212Q636 -212 706 -159T777 47V121Q626 -14 483 -14Q315 -14 197 126T78 485Q78 704 200 843T498 983Q667 983 777 850V968H1246ZM778 481Q778 598 726 666T584 734Q492 734 444 664T395 484Q395 374 445 305T584 235Q665 235 721 299T778 481Z"  />
<glyph unicode="h" horiz-adv-x="1280" d="M56 0V223H212V1168H56V1391H520V890Q666 992 795 992Q1092 992 1092 635V223H1234V0H783V621Q783 689 759 714T685 740Q616 740 520 679V223H658V0H56Z"  />
<glyph unicode="i" horiz-adv-x="725" d="M222 1245Q222 1315 271 1365T391 1415Q462 1415 511 1365T560 1245Q560 1175 511 1126T391 1076Q322 1076 272 1126T222 1245ZM86 744V968H542V223H686V0H86V223H233V744H86Z"  />
<glyph unicode="j" horiz-adv-x="725" d="M206 1239Q206 1308 256 1358T375 1408Q445 1408 494 1359T544 1239Q544 1169 495 1120T375 1070Q303 1070 255 1120T206 1239ZM80 744V968H539V31Q539 -151 506 -239T377 -377T97 -428Q29 -428 -14 -423V-174Q17 -178 44 -178Q133 -178 170 -159T218 -110T230 0V744H80Z"  />
<glyph unicode="k" horiz-adv-x="1323" d="M70 0V223H226V1168H70V1391H534V512L867 783H662V968H1247V772H1150L867 530L1125 223H1259V0H962L534 512V212H651V0H70Z"  />
<glyph unicode="l" horiz-adv-x="725" d="M75 0V223H227V1168H75V1391H536V223H675V0H75Z"  />
<glyph unicode="m" horiz-adv-x="2028" d="M59 744V968H528V889Q686 983 842 983Q1029 983 1132 850Q1319 983 1523 983Q1644 983 1719 939T1823 819T1851 592V223H2011V0H1542V567Q1542 719 1411 719Q1308 719 1188 653V223H1348V0H879V558Q879 719 753 719Q655 719 528 653V223H688V0H59V223H219V744H59Z"  />
<glyph unicode="n" horiz-adv-x="1280" d="M73 744V968H530V878Q670 983 814 983Q1107 983 1107 609V223H1253V0H798V586Q798 665 777 694T706 723Q620 723 530 660V223H679V0H73V223H221V744H73Z"  />
<glyph unicode="o" horiz-adv-x="1174" d="M587 -22Q373 -22 226 113T78 485Q78 721 225 856T587 992Q802 992 949 857T1096 485Q1096 252 951 115T587 -22ZM586 218Q672 218 725 284T779 491Q779 615 727 684T586 754Q395 754 395 478Q395 365 442 292T586 218Z"  />
<glyph unicode="p" horiz-adv-x="1280" d="M699 -214V-437H33V-214H196V744H60V968H505V847Q634 983 793 983Q973 983 1089 837T1206 475Q1206 260 1092 119T788 -22Q633 -22 505 99V-214H699ZM700 222Q783 222 836 285T889 481Q889 609 836 671T698 734Q618 734 560 674T502 477Q502 355 559 289T700 222Z"  />
<glyph unicode="q" horiz-adv-x="1280" d="M581 -214H771V99Q646 -22 489 -22Q290 -22 182 128T74 479Q74 682 186 832T485 983Q642 983 771 847V968H1247V744H1080V-214H1247V-437H581V-214ZM391 486Q391 360 441 290T579 220Q658 220 715 284T773 488Q773 606 720 670T582 734Q496 734 444 671T391 486Z"  />
<glyph unicode="r" horiz-adv-x="918" d="M736 223V0H55V223H234V744H66V968H517V722Q543 828 635 905T854 983Q875 983 904 982V690Q787 690 713 664T591 550T543 342V223H736Z"  />
<glyph unicode="s" horiz-adv-x="1044" d="M119 0V333H345Q348 265 408 225T556 184Q635 184 676 211T717 278Q717 311 686 333T525 377Q256 421 169 506T82 698Q82 816 178 899T440 983Q571 983 685 935V968H906V687H685Q655 788 473 788Q339 788 339 714Q339 686 366 672T507 637Q686 606 775 575T917 473T971 301Q971 159 870 69T582 -22Q409 -22 345 48V0H119Z"  />
<glyph unicode="t" horiz-adv-x="705" d="M39 744V968H162V1120L471 1342V968H649V744H471V325Q471 268 485 249T552 229Q595 229 649 249V35Q530 -14 416 -14Q162 -14 162 238V744H39Z"  />
<glyph unicode="u" horiz-adv-x="1280" d="M1230 223V0H765V82Q626 -14 483 -14Q343 -14 264 64T184 286V744H39V968H492V365Q492 293 514 267T594 240Q672 240 765 309V744H616V968H1074V223H1230Z"  />
<glyph unicode="v" horiz-adv-x="1174" d="M463 -14L136 744H-4V968H583V744H463L614 304L792 744H665V968H1178V744H1040L726 -14H463Z"  />
<glyph unicode="w" horiz-adv-x="1665" d="M378 -14L124 744H1V968H528V744H422L541 384L739 968H995L1187 384L1306 744H1197V968H1665V744H1544L1293 -14H1025L835 555L648 -14H378Z"  />
<glyph unicode="x" horiz-adv-x="1153" d="M46 0V223H186L395 473L186 744H46V968H418L592 703L783 968H1075V744H945L749 512L977 223H1107V0H736L548 272L346 0H46Z"  />
<glyph unicode="y" d="M253 -437V-214H439L503 -41L151 744H11V968H591V744H477L638 309L810 744H684V968H1193V744H1055L591 -437H253Z"  />
<glyph unicode="z" horiz-adv-x="1087" d="M72 0V203L641 772H330V622H119V968H1011V765L442 195H807V361H1011V0H72Z"  />
<glyph unicode="{" horiz-adv-x="788" d="M59 364V592Q152 597 198 631T261 732T278 956Q278 1170 312 1237T425 1347T690 1391H743V1163Q611 1163 575 1138T539 1026Q539 748 502 648T351 478Q447 428 492 332T538 -69Q538 -153 577 -180T742 -207V-434H690Q516 -434 428 -392T309 -269T278 9Q278 160 261 225T198 325T59 364Z"  />
<glyph unicode="|" horiz-adv-x="1251" d="M501 1415H750V-450H501V1415Z"  />
<glyph unicode="}" horiz-adv-x="788" d="M729 592V364Q636 360 590 326T527 225T510 1Q510 -197 476 -276T351 -394T98 -434H45V-207Q177 -207 213 -182T249 -69Q249 192 282 300T437 479Q342 528 296 624T250 1026Q250 1110 211 1136T46 1163V1391H99Q272 1391 361 1349T480 1225T510 947Q510 797 527 732T590 632T729 592Z"  />
<glyph unicode="~" horiz-adv-x="1194" d="M1159 637Q997 495 840 495Q770 495 705 520T546 591Q413 656 344 656Q194 656 35 505V760Q199 902 363 902Q461 902 633 817Q786 741 862 741Q997 741 1159 893V637Z"  />
<glyph unicode="&#xA0;" horiz-adv-x="512" />
<glyph unicode="&#xA1;" horiz-adv-x="725" d="M530 982V647H195V982H530ZM437 497L523 -28V-409H214V-28L293 497H437Z"  />
<glyph unicode="&#xA2;" horiz-adv-x="1153" d="M853 386L1091 281Q1052 170 929 79T613 -12Q528 -12 461 4L308 -437H174L347 43Q63 178 63 489Q63 715 210 857T564 999Q621 999 679 985L841 1423H970L797 936Q834 915 858 897L883 879V985H1064V588H853Q799 684 716 718L546 241Q570 233 602 233Q768 233 853 386ZM592 742Q493 734 437 665T380 489Q380 379 442 318L592 742Z"  />
<glyph unicode="&#xA3;" horiz-adv-x="1174" d="M963 448L1105 420Q1106 397 1106 381Q1106 198 1031 90T820 -18Q681 -18 556 91Q455 -18 333 -18Q231 -18 166 47T100 218Q100 317 163 383T321 450Q387 450 474 407Q474 483 437 588H133V792H333Q236 983 236 1093Q236 1240 356 1327T661 1415Q830 1415 932 1326T1050 1060L808 1030Q804 1220 655 1220Q592 1220 554 1187T515 1109Q515 1047 588 906Q628 827 644 792H902V588H689Q693 521 693 493Q693 386 667 313Q753 276 821 276Q947 276 963 448ZM437 214Q366 300 306 300Q274 300 253 277T231 218Q231 178 259 152T320 126Q400 126 437 214Z"  />
<glyph unicode="&#xA4;" horiz-adv-x="1368" d="M440 1105Q556 1173 684 1173Q813 1173 929 1105L1060 1237L1223 1075L1091 943Q1158 827 1158 699Q1158 570 1091 454L1223 322L1060 160L929 292Q813 225 685 225Q553 225 440 292L308 160L146 322L278 454Q210 567 210 699Q210 827 278 943L146 1075L308 1237L440 1105ZM684 946Q584 946 511 876T437 699Q437 596 509 524T684 451Q786 451 859 523T932 699Q932 805 858 875T684 946Z"  />
<glyph unicode="&#xA5;" horiz-adv-x="1430" d="M498 674H37V816H400L165 1156H-5V1391H691V1156H554L758 816L965 1156H822V1391H1435V1156H1264L1039 816H1393V674H946L904 611V494H1393V353H904V235H1098V0H347V235H542V353H37V494H542V611L498 674Z"  />
<glyph unicode="&#xA6;" horiz-adv-x="1251" d="M501 1415H750V635H501V1415ZM501 331H750V-450H501V331Z"  />
<glyph unicode="&#xA7;" horiz-adv-x="1067" d="M111 -52H374Q376 -134 427 -179T547 -224Q619 -224 655 -187T692 -105Q692 -50 645 -13T440 92Q221 184 135 272T49 472Q49 669 257 776Q94 891 94 1060Q94 1229 215 1322T524 1415Q737 1415 847 1307T958 1042H695Q686 1206 516 1206Q445 1206 409 1173T373 1100Q373 1041 421 1000T633 890Q835 806 926 717T1018 512Q1018 332 815 202Q971 106 971 -76Q971 -230 854 -332T545 -435Q351 -435 234 -326T111 -52ZM671 288Q767 361 767 446Q767 532 609 602L395 696Q302 634 302 549Q302 499 339 461T477 376L671 288Z"  />
<glyph unicode="&#xA8;" horiz-adv-x="682" d="M713 1249Q713 1189 671 1147T569 1104Q509 1104 467 1146T424 1249Q424 1308 466 1350T569 1393Q628 1393 670 1351T713 1249ZM259 1249Q259 1189 216 1147T114 1104Q54 1104 12 1146T-31 1249Q-31 1308 11 1350T114 1393Q173 1393 216 1351T259 1249Z"  />
<glyph unicode="&#xA9;" horiz-adv-x="1516" d="M1524 647Q1524 330 1299 106T758 -119Q441 -119 217 105T-8 647Q-8 964 216 1188T758 1413Q1073 1413 1298 1188T1524 647ZM1373 647Q1373 901 1192 1081T758 1262Q504 1262 324 1081T143 647Q143 393 324 212T758 31Q1011 31 1192 211T1373 647ZM944 533L1105 479Q1070 357 982 288T768 219Q600 219 491 330T382 640Q382 838 486 954T771 1071Q1020 1071 1105 828L943 790Q893 929 765 929Q666 929 612 855T558 646Q558 508 611 435T756 362Q894 362 944 533Z"  />
<glyph unicode="&#xAA;" horiz-adv-x="811" d="M776 951V817H474V862Q393 808 302 808Q215 808 144 855T73 989Q73 1073 144 1129T329 1186Q392 1186 474 1157V1192Q474 1234 443 1263T354 1293Q287 1293 239 1248L77 1274Q146 1413 385 1413Q548 1413 611 1353T675 1206V951H776ZM474 1031Q399 1074 358 1074Q323 1074 295 1056T267 1001Q267 970 289 947T349 924Q404 924 474 984V1031Z"  />
<glyph unicode="&#xAB;" horiz-adv-x="1110" d="M243 0L12 484L243 968H539L314 484L539 0H243ZM805 0L573 484L805 968H1100L875 484L1100 0H805Z"  />
<glyph unicode="&#xAC;" horiz-adv-x="1368" d="M122 1064H1246V333H998V816H122V1064Z"  />
<glyph unicode="&#xAD;" horiz-adv-x="705" d="M73 349V619H632V349H73Z"  />
<glyph unicode="&#xAE;" horiz-adv-x="1516" d="M1524 647Q1524 330 1299 106T758 -119Q441 -119 217 105T-8 647Q-8 964 216 1188T758 1413Q1073 1413 1298 1188T1524 647ZM1373 647Q1373 901 1192 1081T758 1262Q504 1262 324 1081T143 647Q143 393 324 212T758 31Q1011 31 1192 211T1373 647ZM1137 237H933L865 368Q800 493 753 532T625 571H594V237H429V1050H718Q866 1050 928 1037T1039 965T1087 819Q1087 732 1029 669T868 593Q920 573 948 542T1041 400L1137 237ZM594 700H661Q779 700 818 705T885 740T913 812Q913 854 884 883T812 916T660 921H594V700Z"  />
<glyph unicode="&#xAF;" horiz-adv-x="1024" d="M-12 1647H1036V1545H-12V1647Z"  />
<glyph unicode="&#xB0;" horiz-adv-x="811" d="M406 1415Q546 1415 649 1316T752 1069Q752 927 651 825T406 723Q262 723 161 824T60 1069Q60 1217 163 1316T406 1415ZM406 1284Q318 1284 255 1221T191 1069Q191 981 254 918T406 855Q495 855 558 918T621 1069Q621 1158 558 1221T406 1284Z"  />
<glyph unicode="&#xB1;" horiz-adv-x="1368" d="M122 1007H560V1445H808V1007H1246V759H808V321H560V759H122V1007ZM122 200H1246V-48H122V200Z"  />
<glyph unicode="&#xB2;" horiz-adv-x="682" d="M608 899L601 680H52Q50 709 50 730Q50 791 85 867T244 1041Q335 1114 363 1147T391 1223Q391 1291 324 1291Q244 1291 238 1142L62 1149Q64 1237 88 1291T178 1380T339 1415Q461 1415 531 1357T602 1213Q602 1144 563 1099T412 984Q305 918 277 880T238 808H452V899H608Z"  />
<glyph unicode="&#xB3;" horiz-adv-x="682" d="M46 909L229 922Q230 796 325 796Q366 796 393 823T421 897Q421 996 315 996Q300 996 267 994V1127Q401 1127 401 1214Q401 1287 326 1287Q250 1287 250 1193L72 1205Q75 1307 148 1361T340 1415Q463 1415 533 1362T603 1222Q603 1113 489 1062Q633 1015 633 890Q633 796 556 734T339 671Q69 671 46 909Z"  />
<glyph unicode="&#xB4;" horiz-adv-x="682" d="M187 1095L339 1413H715L351 1095H187Z"  />
<glyph unicode="&#xB5;" horiz-adv-x="1260" d="M150 968H429V581Q429 373 476 287T627 201Q696 201 748 248T816 366T832 578V968H1116V0H854V128Q774 -26 635 -26Q569 -26 522 9T429 128V-434H150V968Z"  />
<glyph unicode="&#xB6;" horiz-adv-x="1130" d="M633 -434H393V569Q200 582 100 693T-1 974Q-1 1088 43 1178T160 1315T302 1376T533 1391H1130V1130H1017V-434H777V1130H633V-434Z"  />
<glyph unicode="&#xB7;" horiz-adv-x="682" d="M920 695Q920 636 877 594T775 551Q715 551 673 593T630 695Q630 756 672 798T775 840Q837 840 878 797T920 695Z"  />
<glyph unicode="&#xB8;" horiz-adv-x="682" d="M150 0H330L317 -69Q402 -81 451 -134T501 -252Q501 -335 425 -395T113 -456Q72 -456 19 -454V-352Q230 -352 230 -271Q230 -209 110 -201L150 0Z"  />
<glyph unicode="&#xB9;" horiz-adv-x="682" d="M136 680V807H250V1276H129V1403H454V807H562V680H136Z"  />
<glyph unicode="&#xBA;" horiz-adv-x="768" d="M384 805Q237 805 145 889T53 1109Q53 1249 148 1331T384 1413Q524 1413 619 1332T715 1109Q715 974 623 890T384 805ZM383 948Q509 948 509 1110Q509 1270 383 1270Q259 1270 259 1109Q259 948 383 948Z"  />
<glyph unicode="&#xBB;" horiz-adv-x="1110" d="M306 0H11L236 484L11 968H306L538 484L306 0ZM865 0H570L795 484L570 968H865L1097 484L865 0Z"  />
<glyph unicode="&#xBC;" horiz-adv-x="1898" d="M192 680V807H306V1276H185V1403H510V807H618V680H192ZM324 0L1331 1391H1510L503 0H324ZM1696 118V1H1342V118H1433V196H1135Q1112 257 1088 294L1446 736H1627V307H1707V196H1627V118H1696ZM1433 307V517L1260 307H1433Z"  />
<glyph unicode="&#xBD;" horiz-adv-x="1898" d="M194 680V807H308V1276H187V1403H512V807H620V680H194ZM326 0L1333 1391H1512L505 0H326ZM1697 220L1690 1H1141Q1139 30 1139 51Q1139 112 1174 188T1333 362Q1424 435 1452 468T1480 544Q1480 612 1413 612Q1333 612 1327 463L1151 470Q1153 558 1177 612T1267 701T1428 736Q1550 736 1620 678T1691 534Q1691 465 1652 420T1501 305Q1394 239 1366 201T1327 129H1541V220H1697Z"  />
<glyph unicode="&#xBE;" horiz-adv-x="1898" d="M113 909L296 922Q297 796 392 796Q433 796 460 823T488 897Q488 996 382 996Q367 996 334 994V1127Q468 1127 468 1214Q468 1287 393 1287Q317 1287 317 1193L139 1205Q142 1307 215 1361T407 1415Q530 1415 600 1362T670 1222Q670 1113 556 1062Q700 1015 700 890Q700 796 623 734T406 671Q136 671 113 909ZM323 0L1330 1391H1509L502 0H323ZM1695 118V1H1341V118H1432V196H1134Q1111 257 1087 294L1445 736H1626V307H1706V196H1626V118H1695ZM1432 307V517L1259 307H1432Z"  />
<glyph unicode="&#xBF;" horiz-adv-x="1153" d="M798 982V647H463V982H798ZM557 501H701L729 133Q679 151 625 151Q537 151 474 103T411 -34Q411 -114 463 -166T600 -218Q689 -218 733 -171T777 -52Q777 -33 773 -10H1081Q1081 -219 939 -326T581 -433Q341 -433 217 -317T92 -25Q92 147 203 252T479 357Q494 357 525 355L557 501Z"  />
<glyph unicode="&#xC0;" horiz-adv-x="1430" d="M1432 235V0H748V235H926L860 474H499L425 235H611V0H-5V235H167L438 1156H253V1391H1161V1156H974L1266 235H1432ZM803 678L687 1097L562 678H803ZM813 1524H648L285 1842H660L813 1524Z"  />
<glyph unicode="&#xC1;" horiz-adv-x="1430" d="M1432 235V0H748V235H926L860 474H499L425 235H611V0H-5V235H167L438 1156H253V1391H1161V1156H974L1266 235H1432ZM803 678L687 1097L562 678H803ZM614 1524L766 1842H1142L778 1524H614Z"  />
<glyph unicode="&#xC2;" horiz-adv-x="1430" d="M1432 235V0H748V235H926L860 474H499L425 235H611V0H-5V235H167L438 1156H253V1391H1161V1156H974L1266 235H1432ZM803 678L687 1097L562 678H803ZM564 1858H864L1107 1490H932L714 1708L496 1490H321L564 1858Z"  />
<glyph unicode="&#xC3;" horiz-adv-x="1430" d="M1432 235V0H748V235H926L860 474H499L425 235H611V0H-5V235H167L438 1156H253V1391H1161V1156H974L1266 235H1432ZM803 678L687 1097L562 678H803ZM963 1858H1105V1834Q1105 1716 1042 1625T873 1534Q834 1534 804 1545T691 1598Q591 1649 554 1649Q477 1649 473 1541H323Q323 1692 392 1777T551 1862Q612 1862 704 1815Q839 1745 876 1745Q909 1745 935 1777T963 1858Z"  />
<glyph unicode="&#xC4;" horiz-adv-x="1430" d="M1432 235V0H748V235H926L860 474H499L425 235H611V0H-5V235H167L438 1156H253V1391H1161V1156H974L1266 235H1432ZM803 678L687 1097L562 678H803ZM1079 1651Q1079 1591 1037 1549T935 1506Q875 1506 833 1548T790 1651Q790 1710 832 1752T935 1795Q994 1795 1036 1753T1079 1651ZM625 1651Q625 1591 582 1549T480 1506Q420 1506 378 1548T335 1651Q335 1710 377 1752T480 1795Q539 1795 582 1753T625 1651Z"  />
<glyph unicode="&#xC5;" horiz-adv-x="1430" d="M622 1391Q538 1421 487 1493T436 1653Q436 1767 517 1848T714 1930Q828 1930 909 1849T991 1653Q991 1567 941 1495T803 1391H1161V1156H974L1266 235H1432V0H748V235H926L860 474H499L425 235H611V0H-5V235H167L438 1156H253V1391H622ZM870 1653Q870 1716 825 1763T714 1810Q649 1810 603 1764T557 1653Q557 1588 603 1542T714 1496Q778 1496 824 1542T870 1653ZM803 678L687 1097L562 678H803Z"  />
<glyph unicode="&#xC6;" horiz-adv-x="2028" d="M-5 0V235H141L540 1156H332V1391H1955V951H1689V1156H1272V838H1609V602H1272V235H1689V447H1955V0H752V235H910V602H575L412 235H575V0H-5ZM910 806V1178H819L662 806H910Z"  />
<glyph unicode="&#xC7;" horiz-adv-x="1599" d="M924 -14L914 -69Q999 -81 1048 -133T1098 -252Q1098 -335 1022 -395T710 -456Q672 -456 616 -454V-352Q827 -352 827 -271Q827 -209 707 -201L744 -11Q437 14 269 212T101 696Q101 1019 307 1216T834 1413Q1088 1413 1251 1283V1391H1486V901H1251Q1151 1165 904 1165Q700 1165 596 1026T491 693Q491 490 601 365T883 239Q1023 239 1128 334T1270 598L1544 467Q1411 24 924 -14Z"  />
<glyph unicode="&#xC8;" horiz-adv-x="1366" d="M68 0V235H235V1156H68V1391H1294V950H1028V1156H597V835H945V600H597V235H1028V443H1294V0H68ZM852 1524H687L324 1842H699L852 1524Z"  />
<glyph unicode="&#xC9;" horiz-adv-x="1366" d="M68 0V235H235V1156H68V1391H1294V950H1028V1156H597V835H945V600H597V235H1028V443H1294V0H68ZM533 1524L685 1842H1061L697 1524H533Z"  />
<glyph unicode="&#xCA;" horiz-adv-x="1366" d="M68 0V235H235V1156H68V1391H1294V950H1028V1156H597V835H945V600H597V235H1028V443H1294V0H68ZM531 1858H831L1074 1490H899L681 1708L463 1490H288L531 1858Z"  />
<glyph unicode="&#xCB;" horiz-adv-x="1366" d="M68 0V235H235V1156H68V1391H1294V950H1028V1156H597V835H945V600H597V235H1028V443H1294V0H68ZM1053 1651Q1053 1591 1011 1549T909 1506Q849 1506 807 1548T764 1651Q764 1710 806 1752T909 1795Q968 1795 1010 1753T1053 1651ZM599 1651Q599 1591 556 1549T454 1506Q394 1506 352 1548T309 1651Q309 1710 351 1752T454 1795Q513 1795 556 1753T599 1651Z"  />
<glyph unicode="&#xCC;" horiz-adv-x="874" d="M-11 0V235H200V1156H-11V1391H775V1156H562V235H775V0H-11ZM481 1524H316L-47 1842H328L481 1524Z"  />
<glyph unicode="&#xCD;" horiz-adv-x="874" d="M45 0V235H256V1156H45V1391H831V1156H618V235H831V0H45ZM339 1524L491 1842H867L503 1524H339Z"  />
<glyph unicode="&#xCE;" horiz-adv-x="874" d="M-11 0V235H200V1156H-11V1391H775V1156H562V235H775V0H-11ZM231 1858H531L774 1490H599L381 1708L163 1490H-12L231 1858Z"  />
<glyph unicode="&#xCF;" horiz-adv-x="874" d="M-13 0V235H198V1156H-13V1391H773V1156H560V235H773V0H-13ZM751 1651Q751 1591 709 1549T607 1506Q547 1506 505 1548T462 1651Q462 1710 504 1752T607 1795Q666 1795 708 1753T751 1651ZM297 1651Q297 1591 254 1549T152 1506Q92 1506 50 1548T7 1651Q7 1710 49 1752T152 1795Q211 1795 254 1753T297 1651Z"  />
<glyph unicode="&#xD0;" horiz-adv-x="1642" d="M259 602H48V789H259V1156H48V1391H707Q915 1391 1042 1366T1285 1253T1471 1018T1541 692Q1541 547 1492 416T1371 204T1197 76T1012 14T750 0H48V235H259V602ZM620 602V235H707Q865 235 957 276T1106 420T1162 691Q1162 850 1106 961T953 1114T707 1156H620V789H878V602H620Z"  />
<glyph unicode="&#xD1;" horiz-adv-x="1622" d="M55 0V235H241V1156H55V1391H638L1151 523V1156H970V1391H1594V1156H1399V-10H1089L489 1021V235H664V0H55ZM1074 1858H1216V1834Q1216 1716 1153 1625T984 1534Q945 1534 915 1545T802 1598Q702 1649 665 1649Q588 1649 584 1541H434Q434 1692 503 1777T662 1862Q723 1862 815 1815Q950 1745 987 1745Q1020 1745 1046 1777T1074 1858Z"  />
<glyph unicode="&#xD2;" horiz-adv-x="1749" d="M874 1413Q1234 1413 1440 1205T1647 698Q1647 398 1440 191T874 -17Q501 -17 301 196T101 698Q101 996 306 1204T874 1413ZM874 1159Q714 1159 603 1039T491 687Q491 482 601 359T874 236Q1034 236 1146 356T1258 704Q1258 907 1151 1033T874 1159ZM973 1524H808L445 1842H820L973 1524Z"  />
<glyph unicode="&#xD3;" horiz-adv-x="1749" d="M874 1413Q1234 1413 1440 1205T1647 698Q1647 398 1440 191T874 -17Q501 -17 301 196T101 698Q101 996 306 1204T874 1413ZM874 1159Q714 1159 603 1039T491 687Q491 482 601 359T874 236Q1034 236 1146 356T1258 704Q1258 907 1151 1033T874 1159ZM775 1524L927 1842H1303L939 1524H775Z"  />
<glyph unicode="&#xD4;" horiz-adv-x="1749" d="M874 1413Q1234 1413 1440 1205T1647 698Q1647 398 1440 191T874 -17Q501 -17 301 196T101 698Q101 996 306 1204T874 1413ZM874 1159Q714 1159 603 1039T491 687Q491 482 601 359T874 236Q1034 236 1146 356T1258 704Q1258 907 1151 1033T874 1159ZM724 1858H1024L1267 1490H1092L874 1708L656 1490H481L724 1858Z"  />
<glyph unicode="&#xD5;" horiz-adv-x="1749" d="M874 1413Q1234 1413 1440 1205T1647 698Q1647 398 1440 191T874 -17Q501 -17 301 196T101 698Q101 996 306 1204T874 1413ZM874 1159Q714 1159 603 1039T491 687Q491 482 601 359T874 236Q1034 236 1146 356T1258 704Q1258 907 1151 1033T874 1159ZM1123 1858H1265V1834Q1265 1716 1202 1625T1033 1534Q994 1534 964 1545T851 1598Q751 1649 714 1649Q637 1649 633 1541H483Q483 1692 552 1777T711 1862Q772 1862 864 1815Q999 1745 1036 1745Q1069 1745 1095 1777T1123 1858Z"  />
<glyph unicode="&#xD6;" horiz-adv-x="1749" d="M874 1413Q1234 1413 1440 1205T1647 698Q1647 398 1440 191T874 -17Q501 -17 301 196T101 698Q101 996 306 1204T874 1413ZM874 1159Q714 1159 603 1039T491 687Q491 482 601 359T874 236Q1034 236 1146 356T1258 704Q1258 907 1151 1033T874 1159ZM1247 1651Q1247 1591 1205 1549T1103 1506Q1043 1506 1001 1548T958 1651Q958 1710 1000 1752T1103 1795Q1162 1795 1204 1753T1247 1651ZM793 1651Q793 1591 750 1549T648 1506Q588 1506 546 1548T503 1651Q503 1710 545 1752T648 1795Q707 1795 750 1753T793 1651Z"  />
<glyph unicode="&#xD7;" horiz-adv-x="1368" d="M325 1233L684 874L1043 1233L1219 1058L860 699L1219 339L1043 164L684 523L325 164L149 339L508 699L149 1058L325 1233Z"  />
<glyph unicode="&#xD8;" horiz-adv-x="1749" d="M1313 1304L1434 1442L1546 1356L1426 1219Q1647 1010 1647 698Q1647 398 1440 191T874 -17Q612 -17 437 90L301 -65L185 12L326 173Q101 380 101 699Q101 998 308 1205T874 1413Q1137 1413 1313 1304ZM1111 1073Q1010 1159 874 1159Q711 1159 601 1037T491 701Q491 542 550 430L1111 1073ZM1201 962L639 321Q743 236 874 236Q1034 236 1146 357T1258 701Q1258 853 1201 962Z"  />
<glyph unicode="&#xD9;" horiz-adv-x="1386" d="M37 1156V1391H701V1156H564V527Q564 401 574 346T630 254T744 218Q815 218 862 252T922 337T936 545V1156H801V1391H1355V1156H1185V460Q1185 318 1170 254T1101 126T945 23T709 -17Q555 -17 447 26T285 142T217 285T202 527V1156H37ZM831 1524H666L303 1842H678L831 1524Z"  />
<glyph unicode="&#xDA;" horiz-adv-x="1386" d="M37 1156V1391H701V1156H564V527Q564 401 574 346T630 254T744 218Q815 218 862 252T922 337T936 545V1156H801V1391H1355V1156H1185V460Q1185 318 1170 254T1101 126T945 23T709 -17Q555 -17 447 26T285 142T217 285T202 527V1156H37ZM597 1524L749 1842H1125L761 1524H597Z"  />
<glyph unicode="&#xDB;" horiz-adv-x="1386" d="M37 1156V1391H701V1156H564V527Q564 401 574 346T630 254T744 218Q815 218 862 252T922 337T936 545V1156H801V1391H1355V1156H1185V460Q1185 318 1170 254T1101 126T945 23T709 -17Q555 -17 447 26T285 142T217 285T202 527V1156H37ZM546 1858H846L1089 1490H914L696 1708L478 1490H303L546 1858Z"  />
<glyph unicode="&#xDC;" horiz-adv-x="1386" d="M37 1156V1391H701V1156H564V527Q564 401 574 346T630 254T744 218Q815 218 862 252T922 337T936 545V1156H801V1391H1355V1156H1185V460Q1185 318 1170 254T1101 126T945 23T709 -17Q555 -17 447 26T285 142T217 285T202 527V1156H37ZM1068 1651Q1068 1591 1026 1549T924 1506Q864 1506 822 1548T779 1651Q779 1710 821 1752T924 1795Q983 1795 1025 1753T1068 1651ZM614 1651Q614 1591 571 1549T469 1506Q409 1506 367 1548T324 1651Q324 1710 366 1752T469 1795Q528 1795 571 1753T614 1651Z"  />
<glyph unicode="&#xDD;" horiz-adv-x="1430" d="M347 0V235H542V611L165 1156H-5V1391H691V1156H554L758 816L965 1156H822V1391H1435V1156H1264L904 611V235H1098V0H347ZM616 1524L768 1842H1144L780 1524H616Z"  />
<glyph unicode="&#xDE;" horiz-adv-x="1366" d="M794 235V0H61V235H238V1156H61V1391H794V1156H600V1080H794Q1066 1080 1197 968T1329 695Q1329 548 1210 430T733 311H600V235H794ZM600 532H654Q834 532 889 578T945 697Q945 755 909 797T823 849T668 859H600V532Z"  />
<glyph unicode="&#xDF;" horiz-adv-x="1323" d="M591 223V0H48V223H209V924Q209 1094 249 1189T406 1350T680 1415Q915 1415 1035 1320T1156 1079Q1156 881 942 792Q1221 705 1221 407Q1221 226 1125 106T841 -14Q764 -14 690 16V223Q721 210 751 210Q910 210 910 410Q910 661 690 666V891Q754 891 800 933T847 1042Q847 1118 798 1160T685 1202Q622 1202 581 1166T528 1072T517 891V223H591Z"  />
<glyph unicode="&#xE0;" horiz-adv-x="1194" d="M1165 223V0H700V76Q575 -14 436 -14Q293 -14 188 68T83 288Q83 427 193 521T477 615Q574 615 700 566V625Q700 699 650 746T516 794Q412 794 338 718L89 763Q197 992 558 992Q709 992 805 956T942 861T996 753T1009 576V223H1165ZM700 358Q588 428 521 428Q465 428 423 396T381 307Q381 255 416 217T506 178Q592 178 700 279V358ZM760 1095H595L232 1413H607L760 1095Z"  />
<glyph unicode="&#xE1;" horiz-adv-x="1194" d="M1165 223V0H700V76Q575 -14 436 -14Q293 -14 188 68T83 288Q83 427 193 521T477 615Q574 615 700 566V625Q700 699 650 746T516 794Q412 794 338 718L89 763Q197 992 558 992Q709 992 805 956T942 861T996 753T1009 576V223H1165ZM700 358Q588 428 521 428Q465 428 423 396T381 307Q381 255 416 217T506 178Q592 178 700 279V358ZM452 1095L604 1413H980L616 1095H452Z"  />
<glyph unicode="&#xE2;" horiz-adv-x="1194" d="M1165 223V0H700V76Q575 -14 436 -14Q293 -14 188 68T83 288Q83 427 193 521T477 615Q574 615 700 566V625Q700 699 650 746T516 794Q412 794 338 718L89 763Q197 992 558 992Q709 992 805 956T942 861T996 753T1009 576V223H1165ZM700 358Q588 428 521 428Q465 428 423 396T381 307Q381 255 416 217T506 178Q592 178 700 279V358ZM408 1437H708L951 1069H776L558 1287L340 1069H165L408 1437Z"  />
<glyph unicode="&#xE3;" horiz-adv-x="1194" d="M1165 223V0H700V76Q575 -14 436 -14Q293 -14 188 68T83 288Q83 427 193 521T477 615Q574 615 700 566V625Q700 699 650 746T516 794Q412 794 338 718L89 763Q197 992 558 992Q709 992 805 956T942 861T996 753T1009 576V223H1165ZM700 358Q588 428 521 428Q465 428 423 396T381 307Q381 255 416 217T506 178Q592 178 700 279V358ZM819 1404H961V1380Q961 1262 898 1171T729 1080Q690 1080 660 1091T547 1144Q447 1195 410 1195Q333 1195 329 1087H179Q179 1238 248 1323T407 1408Q468 1408 560 1361Q695 1291 732 1291Q765 1291 791 1323T819 1404Z"  />
<glyph unicode="&#xE4;" horiz-adv-x="1194" d="M1165 223V0H700V76Q575 -14 436 -14Q293 -14 188 68T83 288Q83 427 193 521T477 615Q574 615 700 566V625Q700 699 650 746T516 794Q412 794 338 718L89 763Q197 992 558 992Q709 992 805 956T942 861T996 753T1009 576V223H1165ZM700 358Q588 428 521 428Q465 428 423 396T381 307Q381 255 416 217T506 178Q592 178 700 279V358ZM930 1249Q930 1189 888 1147T786 1104Q726 1104 684 1146T641 1249Q641 1308 683 1350T786 1393Q845 1393 887 1351T930 1249ZM476 1249Q476 1189 433 1147T331 1104Q271 1104 229 1146T186 1249Q186 1308 228 1350T331 1393Q390 1393 433 1351T476 1249Z"  />
<glyph unicode="&#xE5;" horiz-adv-x="1194" d="M1165 223V0H700V76Q575 -14 436 -14Q293 -14 188 68T83 288Q83 427 193 521T477 615Q574 615 700 566V625Q700 699 650 746T516 794Q412 794 338 718L89 763Q197 992 558 992Q709 992 805 956T942 861T996 753T1009 576V223H1165ZM700 358Q588 428 521 428Q465 428 423 396T381 307Q381 255 416 217T506 178Q592 178 700 279V358ZM805 1267Q805 1182 745 1119T594 1056Q507 1056 445 1117T383 1267Q383 1354 444 1416T594 1478Q681 1478 743 1416T805 1267ZM703 1267Q703 1310 672 1342T594 1375Q549 1375 518 1343T486 1267Q486 1222 517 1190T594 1158Q639 1158 671 1190T703 1267Z"  />
<glyph unicode="&#xE6;" horiz-adv-x="1812" d="M1492 297L1732 223Q1664 105 1535 42T1256 -22Q1095 -22 987 40T820 181Q619 -22 430 -22Q290 -22 187 63T84 290Q84 441 195 528T474 616Q602 616 725 568Q726 587 726 602Q726 691 668 741T522 791Q422 791 328 719L83 765Q200 992 572 992Q801 992 935 896Q1055 992 1226 992Q1485 992 1616 838T1747 459Q1747 447 1746 424H1036Q1042 321 1106 254T1264 186Q1380 186 1492 297ZM1433 595Q1418 680 1364 732T1227 784Q1149 784 1097 732T1036 595H1433ZM725 359Q608 432 531 432Q472 432 425 395T378 296Q378 244 414 212T496 179Q597 179 725 287V359Z"  />
<glyph unicode="&#xE7;" horiz-adv-x="1153" d="M1073 968V575H853Q778 737 618 737Q521 737 458 672T395 489Q395 352 459 287T616 221Q687 221 754 263T862 376L1102 270Q978 -3 670 -21L660 -69Q746 -81 795 -134T845 -252Q845 -335 769 -395T456 -456Q416 -456 363 -454V-352Q573 -352 573 -271Q573 -209 454 -201L492 -8Q278 37 178 171T78 485Q78 709 222 846T569 983Q726 983 862 888V968H1073Z"  />
<glyph unicode="&#xE8;" horiz-adv-x="1174" d="M853 292L1093 215Q942 -22 621 -22Q362 -22 220 113T78 468Q78 692 226 842T603 992Q816 992 960 849T1105 420H384Q391 288 467 233T629 178Q740 178 853 292ZM794 592Q785 677 729 732T587 787Q417 787 389 592H794ZM746 1095H581L218 1413H593L746 1095Z"  />
<glyph unicode="&#xE9;" horiz-adv-x="1174" d="M853 292L1093 215Q942 -22 621 -22Q362 -22 220 113T78 468Q78 692 226 842T603 992Q816 992 960 849T1105 420H384Q391 288 467 233T629 178Q740 178 853 292ZM794 592Q785 677 729 732T587 787Q417 787 389 592H794ZM438 1095L590 1413H966L602 1095H438Z"  />
<glyph unicode="&#xEA;" horiz-adv-x="1174" d="M853 292L1093 215Q942 -22 621 -22Q362 -22 220 113T78 468Q78 692 226 842T603 992Q816 992 960 849T1105 420H384Q391 288 467 233T629 178Q740 178 853 292ZM794 592Q785 677 729 732T587 787Q417 787 389 592H794ZM442 1437H742L985 1069H810L592 1287L374 1069H199L442 1437Z"  />
<glyph unicode="&#xEB;" horiz-adv-x="1174" d="M853 292L1093 215Q942 -22 621 -22Q362 -22 220 113T78 468Q78 692 226 842T603 992Q816 992 960 849T1105 420H384Q391 288 467 233T629 178Q740 178 853 292ZM794 592Q785 677 729 732T587 787Q417 787 389 592H794ZM964 1249Q964 1189 922 1147T820 1104Q760 1104 718 1146T675 1249Q675 1308 717 1350T820 1393Q879 1393 921 1351T964 1249ZM510 1249Q510 1189 467 1147T365 1104Q305 1104 263 1146T220 1249Q220 1308 262 1350T365 1393Q424 1393 467 1351T510 1249Z"  />
<glyph unicode="&#xEC;" horiz-adv-x="725" d="M86 744V968H542V223H686V0H86V223H233V744H86ZM540 1095H375L12 1413H387L540 1095Z"  />
<glyph unicode="&#xED;" horiz-adv-x="725" d="M86 744V968H542V223H686V0H86V223H233V744H86ZM232 1095L384 1413H760L396 1095H232Z"  />
<glyph unicode="&#xEE;" horiz-adv-x="725" d="M87 744V968H543V223H687V0H87V223H234V744H87ZM213 1437H513L756 1069H581L363 1287L145 1069H-30L213 1437Z"  />
<glyph unicode="&#xEF;" horiz-adv-x="725" d="M86 744V968H542V223H686V0H86V223H233V744H86ZM734 1249Q734 1189 692 1147T590 1104Q530 1104 488 1146T445 1249Q445 1308 487 1350T590 1393Q649 1393 691 1351T734 1249ZM280 1249Q280 1189 237 1147T135 1104Q75 1104 33 1146T-10 1249Q-10 1308 32 1350T135 1393Q194 1393 237 1351T280 1249Z"  />
<glyph unicode="&#xF0;" horiz-adv-x="1174" d="M320 1415H625Q660 1387 688 1361L865 1415L905 1295L790 1258Q939 1100 1020 905T1101 531Q1101 318 968 148T569 -22Q432 -22 327 33T147 206T73 481Q73 707 208 849T531 992Q628 992 709 945Q640 1075 549 1182L301 1102L262 1221L460 1288Q411 1345 320 1415ZM591 753Q506 753 448 684T389 483Q389 364 437 291T579 218Q672 218 729 292T787 501Q787 620 731 686T591 753Z"  />
<glyph unicode="&#xF1;" horiz-adv-x="1280" d="M73 744V968H530V878Q670 983 814 983Q1107 983 1107 609V223H1253V0H798V586Q798 665 777 694T706 723Q620 723 530 660V223H679V0H73V223H221V744H73ZM912 1404H1054V1380Q1054 1262 991 1171T822 1080Q783 1080 753 1091T640 1144Q540 1195 503 1195Q426 1195 422 1087H272Q272 1238 341 1323T500 1408Q561 1408 653 1361Q788 1291 825 1291Q858 1291 884 1323T912 1404Z"  />
<glyph unicode="&#xF2;" horiz-adv-x="1174" d="M587 -22Q373 -22 226 113T78 485Q78 721 225 856T587 992Q802 992 949 857T1096 485Q1096 252 951 115T587 -22ZM586 218Q672 218 725 284T779 491Q779 615 727 684T586 754Q395 754 395 478Q395 365 442 292T586 218ZM741 1095H576L213 1413H588L741 1095Z"  />
<glyph unicode="&#xF3;" horiz-adv-x="1174" d="M587 -22Q373 -22 226 113T78 485Q78 721 225 856T587 992Q802 992 949 857T1096 485Q1096 252 951 115T587 -22ZM586 218Q672 218 725 284T779 491Q779 615 727 684T586 754Q395 754 395 478Q395 365 442 292T586 218ZM433 1095L585 1413H961L597 1095H433Z"  />
<glyph unicode="&#xF4;" horiz-adv-x="1174" d="M587 -22Q373 -22 226 113T78 485Q78 721 225 856T587 992Q802 992 949 857T1096 485Q1096 252 951 115T587 -22ZM586 218Q672 218 725 284T779 491Q779 615 727 684T586 754Q395 754 395 478Q395 365 442 292T586 218ZM437 1437H737L980 1069H805L587 1287L369 1069H194L437 1437Z"  />
<glyph unicode="&#xF5;" horiz-adv-x="1174" d="M587 -22Q373 -22 226 113T78 485Q78 721 225 856T587 992Q802 992 949 857T1096 485Q1096 252 951 115T587 -22ZM586 218Q672 218 725 284T779 491Q779 615 727 684T586 754Q395 754 395 478Q395 365 442 292T586 218ZM836 1404H978V1380Q978 1262 915 1171T746 1080Q707 1080 677 1091T564 1144Q464 1195 427 1195Q350 1195 346 1087H196Q196 1238 265 1323T424 1408Q485 1408 577 1361Q712 1291 749 1291Q782 1291 808 1323T836 1404Z"  />
<glyph unicode="&#xF6;" horiz-adv-x="1174" d="M587 -22Q373 -22 226 113T78 485Q78 721 225 856T587 992Q802 992 949 857T1096 485Q1096 252 951 115T587 -22ZM586 218Q672 218 725 284T779 491Q779 615 727 684T586 754Q395 754 395 478Q395 365 442 292T586 218ZM959 1249Q959 1189 917 1147T815 1104Q755 1104 713 1146T670 1249Q670 1308 712 1350T815 1393Q874 1393 916 1351T959 1249ZM505 1249Q505 1189 462 1147T360 1104Q300 1104 258 1146T215 1249Q215 1308 257 1350T360 1393Q419 1393 462 1351T505 1249Z"  />
<glyph unicode="&#xF7;" horiz-adv-x="1368" d="M684 1263Q744 1263 787 1221T830 1117Q830 1057 788 1015T684 972Q624 972 582 1014T539 1117Q539 1180 582 1221T684 1263ZM122 816H1246V581H122V816ZM684 426Q743 426 786 385T830 280Q830 219 787 177T684 134Q625 134 582 176T539 280Q539 343 582 384T684 426Z"  />
<glyph unicode="&#xF8;" horiz-adv-x="1174" d="M971 835Q1096 704 1096 485Q1096 251 951 115T587 -22Q429 -22 302 55L180 -87L85 -9L206 133Q78 264 78 476Q78 720 224 856T587 992Q751 992 874 914L996 1057L1090 974L971 835ZM409 370L701 713Q652 754 586 754Q497 754 446 685T395 490Q395 429 409 370ZM767 597L475 256Q521 218 586 218Q675 218 727 286T779 481Q779 544 767 597Z"  />
<glyph unicode="&#xF9;" horiz-adv-x="1280" d="M1230 223V0H765V82Q626 -14 483 -14Q343 -14 264 64T184 286V744H39V968H492V365Q492 293 514 267T594 240Q672 240 765 309V744H616V968H1074V223H1230ZM789 1095H624L261 1413H636L789 1095Z"  />
<glyph unicode="&#xFA;" horiz-adv-x="1280" d="M1230 223V0H765V82Q626 -14 483 -14Q343 -14 264 64T184 286V744H39V968H492V365Q492 293 514 267T594 240Q672 240 765 309V744H616V968H1074V223H1230ZM481 1095L633 1413H1009L645 1095H481Z"  />
<glyph unicode="&#xFB;" horiz-adv-x="1280" d="M1230 223V0H765V82Q626 -14 483 -14Q343 -14 264 64T184 286V744H39V968H492V365Q492 293 514 267T594 240Q672 240 765 309V744H616V968H1074V223H1230ZM484 1437H784L1027 1069H852L634 1287L416 1069H241L484 1437Z"  />
<glyph unicode="&#xFC;" horiz-adv-x="1280" d="M1230 223V0H765V82Q626 -14 483 -14Q343 -14 264 64T184 286V744H39V968H492V365Q492 293 514 267T594 240Q672 240 765 309V744H616V968H1074V223H1230ZM1007 1249Q1007 1189 965 1147T863 1104Q803 1104 761 1146T718 1249Q718 1308 760 1350T863 1393Q922 1393 964 1351T1007 1249ZM553 1249Q553 1189 510 1147T408 1104Q348 1104 306 1146T263 1249Q263 1308 305 1350T408 1393Q467 1393 510 1351T553 1249Z"  />
<glyph unicode="&#xFD;" d="M253 -437V-214H439L503 -41L151 744H11V968H591V744H477L638 309L810 744H684V968H1193V744H1055L591 -437H253ZM448 1095L600 1413H976L612 1095H448Z"  />
<glyph unicode="&#xFE;" horiz-adv-x="1280" d="M699 -214V-437H33V-214H196V1168H60V1391H505V847Q634 983 793 983Q985 983 1095 831T1206 475Q1206 260 1092 119T788 -22Q633 -22 505 99V-214H699ZM889 481Q889 608 837 671T698 734Q611 734 557 670T502 477Q502 362 556 292T700 222Q783 222 836 285T889 481Z"  />
<glyph unicode="&#xFF;" d="M253 -437V-214H439L503 -41L151 744H11V968H591V744H477L638 309L810 744H684V968H1193V744H1055L591 -437H253ZM974 1249Q974 1189 932 1147T830 1104Q770 1104 728 1146T685 1249Q685 1308 727 1350T830 1393Q889 1393 931 1351T974 1249ZM520 1249Q520 1189 477 1147T375 1104Q315 1104 273 1146T230 1249Q230 1308 272 1350T375 1393Q434 1393 477 1351T520 1249Z"  />
<glyph unicode="&#x100;" horiz-adv-x="1430" d="M1432 235V0H748V235H926L860 474H499L425 235H611V0H-5V235H167L438 1156H253V1391H1161V1156H974L1266 235H1432ZM803 678L687 1097L562 678H803ZM291 1530V1737H1135V1530H291Z"  />
<glyph unicode="&#x101;" horiz-adv-x="1194" d="M1165 223V0H700V76Q575 -14 436 -14Q293 -14 188 68T83 288Q83 427 193 521T477 615Q574 615 700 566V625Q700 699 650 746T516 794Q412 794 338 718L89 763Q197 992 558 992Q709 992 805 956T942 861T996 753T1009 576V223H1165ZM700 358Q588 428 521 428Q465 428 423 396T381 307Q381 255 416 217T506 178Q592 178 700 279V358ZM190 1111V1318H1034V1111H190Z"  />
<glyph unicode="&#x102;" horiz-adv-x="1430" d="M1432 235V0H748V235H926L860 474H499L425 235H611V0H-5V235H167L438 1156H253V1391H1161V1156H974L1266 235H1432ZM803 678L687 1097L562 678H803ZM886 1851H1101Q1087 1701 974 1597T713 1493Q567 1493 453 1597T325 1851H541Q583 1705 713 1705Q843 1705 886 1851Z"  />
<glyph unicode="&#x103;" horiz-adv-x="1194" d="M1165 223V0H700V76Q575 -14 436 -14Q293 -14 188 68T83 288Q83 427 193 521T477 615Q574 615 700 566V625Q700 699 650 746T516 794Q412 794 338 718L89 763Q197 992 558 992Q709 992 805 956T942 861T996 753T1009 576V223H1165ZM700 358Q588 428 521 428Q465 428 423 396T381 307Q381 255 416 217T506 178Q592 178 700 279V358ZM779 1427H994Q980 1277 867 1173T606 1069Q460 1069 346 1173T218 1427H434Q476 1281 606 1281Q736 1281 779 1427Z"  />
<glyph unicode="&#x104;" horiz-adv-x="1430" d="M981 -94T1045 0H748V235H926L860 474H499L425 235H611V0H-5V235H167L438 1156H253V1391H1161V1156H974L1266 235H1432V0H1230Q1193 -73 1193 -130Q1193 -168 1220 -200T1294 -232Q1342 -232 1407 -212V-437Q1332 -459 1263 -459Q1139 -459 1060 -381T981 -196Q981 -94 1045 0ZM803 678L687 1097L562 678H803Z"  />
<glyph unicode="&#x105;" horiz-adv-x="1194" d="M727 -96T791 0H700V76Q575 -14 436 -14Q293 -14 188 68T83 288Q83 427 193 521T477 615Q574 615 700 566V625Q700 699 650 746T516 794Q412 794 338 718L89 763Q197 992 558 992Q709 992 805 956T942 861T996 753T1009 576V223H1165V0H976Q939 -72 939 -127Q939 -168 965 -200T1045 -232Q1089 -232 1153 -212V-437Q1078 -459 1012 -459Q884 -459 806 -381T727 -196Q727 -96 791 0ZM700 358Q588 428 521 428Q465 428 423 396T381 307Q381 255 416 217T506 178Q592 178 700 279V358Z"  />
<glyph unicode="&#x106;" horiz-adv-x="1599" d="M1251 1391H1486V901H1251Q1151 1165 904 1165Q700 1165 596 1026T491 693Q491 490 601 365T883 239Q1023 239 1128 334T1270 598L1544 467Q1388 -17 857 -17Q482 -17 292 185T101 696Q101 916 200 1081T466 1329T834 1413Q1083 1413 1251 1283V1391ZM723 1524L875 1842H1251L887 1524H723Z"  />
<glyph unicode="&#x107;" horiz-adv-x="1153" d="M1073 968V575H853Q778 737 618 737Q516 737 456 670T395 489Q395 352 459 287T616 221Q690 221 756 263T862 376L1102 270Q968 -22 632 -22Q379 -22 229 116T78 485Q78 716 225 849T569 983Q726 983 862 888V968H1073ZM436 1095L588 1413H964L600 1095H436Z"  />
<glyph unicode="&#x108;" horiz-adv-x="1599" d="M1251 1391H1486V901H1251Q1151 1165 904 1165Q700 1165 596 1026T491 693Q491 490 601 365T883 239Q1023 239 1128 334T1270 598L1544 467Q1388 -17 857 -17Q482 -17 292 185T101 696Q101 916 200 1081T466 1329T834 1413Q1083 1413 1251 1283V1391ZM672 1857H972L1215 1489H1040L822 1707L604 1489H429L672 1857Z"  />
<glyph unicode="&#x109;" horiz-adv-x="1153" d="M1073 968V575H853Q778 737 618 737Q516 737 456 670T395 489Q395 352 459 287T616 221Q690 221 756 263T862 376L1102 270Q968 -22 632 -22Q379 -22 229 116T78 485Q78 716 225 849T569 983Q726 983 862 888V968H1073ZM465 1437H765L1008 1069H833L615 1287L397 1069H222L465 1437Z"  />
<glyph unicode="&#x10A;" horiz-adv-x="1599" d="M1251 1391H1486V901H1251Q1151 1165 904 1165Q700 1165 596 1026T491 693Q491 490 601 365T883 239Q1023 239 1128 334T1270 598L1544 467Q1388 -17 857 -17Q482 -17 292 185T101 696Q101 916 200 1081T466 1329T834 1413Q1083 1413 1251 1283V1391ZM1005 1650Q1005 1591 963 1548T860 1505Q800 1505 758 1547T715 1650Q715 1709 757 1751T860 1794Q922 1794 963 1751T1005 1650Z"  />
<glyph unicode="&#x10B;" horiz-adv-x="1153" d="M1073 968V575H853Q778 737 618 737Q516 737 456 670T395 489Q395 352 459 287T616 221Q690 221 756 263T862 376L1102 270Q968 -22 632 -22Q379 -22 229 116T78 485Q78 716 225 849T569 983Q726 983 862 888V968H1073ZM748 1249Q748 1190 706 1147T603 1104Q543 1104 501 1146T458 1249Q458 1308 500 1350T603 1393Q665 1393 706 1350T748 1249Z"  />
<glyph unicode="&#x10C;" horiz-adv-x="1599" d="M1251 1391H1486V901H1251Q1151 1165 904 1165Q700 1165 596 1026T491 693Q491 490 601 365T883 239Q1023 239 1128 334T1270 598L1544 467Q1388 -17 857 -17Q482 -17 292 185T101 696Q101 916 200 1081T466 1329T834 1413Q1083 1413 1251 1283V1391ZM973 1490H673L430 1858H605L823 1640L1041 1858H1216L973 1490Z"  />
<glyph unicode="&#x10D;" horiz-adv-x="1153" d="M1073 968V575H853Q778 737 618 737Q516 737 456 670T395 489Q395 352 459 287T616 221Q690 221 756 263T862 376L1102 270Q968 -22 632 -22Q379 -22 229 116T78 485Q78 716 225 849T569 983Q726 983 862 888V968H1073ZM740 1069H440L197 1437H372L590 1219L808 1437H983L740 1069Z"  />
<glyph unicode="&#x10E;" horiz-adv-x="1642" d="M48 0V235H259V1156H48V1391H707Q915 1391 1042 1366T1285 1253T1471 1018T1541 692Q1541 547 1492 416T1371 204T1197 76T1012 14T750 0H48ZM620 235H707Q865 235 957 276T1106 420T1162 691Q1162 850 1106 961T953 1114T707 1156H620V235ZM928 1489H628L385 1857H560L778 1639L996 1857H1171L928 1489Z"  />
<glyph unicode="&#x10F;" horiz-adv-x="1536" d="M1246 223V0H778V115Q649 -14 498 -14Q317 -14 198 133T79 489Q79 701 201 846T499 992Q668 992 778 861V1168H627V1391H1087V223H1246ZM781 486Q781 625 722 684T586 743Q495 743 446 673T396 487Q396 378 445 304T587 229Q664 229 722 289T781 486ZM1177 760V896Q1242 902 1283 940T1325 1090H1177V1391H1478V1112Q1478 933 1415 847T1177 760Z"  />
<glyph unicode="&#x110;" horiz-adv-x="1642" d="M279 602H57V789H279V1156H69V1391H728Q936 1391 1063 1366T1306 1253T1491 1018T1561 692Q1561 547 1513 416T1392 204T1218 76T1033 14T770 0H69V235H279V602ZM641 602V235H728Q886 235 978 276T1127 420T1183 691Q1183 850 1127 961T974 1114T728 1156H641V789H898V602H641Z"  />
<glyph unicode="&#x111;" horiz-adv-x="1280" d="M776 1015H596V1124H776V1168H625V1391H1085V1124H1203V1015H1085V223H1244V0H776V115Q647 -14 496 -14Q315 -14 196 133T77 489Q77 701 199 846T497 992Q666 992 776 861V1015ZM779 486Q779 625 720 684T584 743Q493 743 444 673T394 487Q394 378 443 304T585 229Q662 229 720 289T779 486Z"  />
<glyph unicode="&#x112;" horiz-adv-x="1366" d="M68 0V235H235V1156H68V1391H1294V950H1028V1156H597V835H945V600H597V235H1028V443H1294V0H68ZM259 1530V1737H1103V1530H259Z"  />
<glyph unicode="&#x113;" horiz-adv-x="1174" d="M853 292L1093 215Q942 -22 621 -22Q362 -22 220 113T78 468Q78 692 226 842T603 992Q816 992 960 849T1105 420H384Q391 288 467 233T629 178Q740 178 853 292ZM794 592Q785 677 729 732T587 787Q417 787 389 592H794ZM170 1111V1318H1014V1111H170Z"  />
<glyph unicode="&#x114;" horiz-adv-x="1366" d="M68 0V235H235V1156H68V1391H1294V950H1028V1156H597V835H945V600H597V235H1028V443H1294V0H68ZM854 1851H1069Q1055 1701 942 1597T681 1493Q535 1493 421 1597T293 1851H509Q551 1705 681 1705Q811 1705 854 1851Z"  />
<glyph unicode="&#x115;" horiz-adv-x="1174" d="M853 292L1093 215Q942 -22 621 -22Q362 -22 220 113T78 468Q78 692 226 842T603 992Q816 992 960 849T1105 420H384Q391 288 467 233T629 178Q740 178 853 292ZM794 592Q785 677 729 732T587 787Q417 787 389 592H794ZM764 1427H979Q965 1277 852 1173T591 1069Q445 1069 331 1173T203 1427H419Q461 1281 591 1281Q721 1281 764 1427Z"  />
<glyph unicode="&#x116;" horiz-adv-x="1366" d="M68 0V235H235V1156H68V1391H1294V950H1028V1156H597V835H945V600H597V235H1028V443H1294V0H68ZM826 1650Q826 1591 784 1548T681 1505Q621 1505 579 1547T536 1650Q536 1709 578 1751T681 1794Q743 1794 784 1751T826 1650Z"  />
<glyph unicode="&#x117;" horiz-adv-x="1174" d="M853 292L1093 215Q942 -22 621 -22Q362 -22 220 113T78 468Q78 692 226 842T603 992Q816 992 960 849T1105 420H384Q391 288 467 233T629 178Q740 178 853 292ZM794 592Q785 677 729 732T587 787Q417 787 389 592H794ZM736 1244Q736 1185 694 1142T591 1099Q531 1099 489 1141T446 1244Q446 1303 488 1345T591 1388Q653 1388 694 1345T736 1244Z"  />
<glyph unicode="&#x118;" horiz-adv-x="1366" d="M1116 0Q1079 -73 1079 -130Q1079 -168 1106 -200T1180 -232Q1229 -232 1294 -212V-437Q1218 -459 1149 -459Q1025 -459 946 -381T867 -196Q867 -94 931 0H68V235H235V1156H68V1391H1294V950H1028V1156H597V835H945V600H597V235H1028V443H1294V0H1116Z"  />
<glyph unicode="&#x119;" horiz-adv-x="1174" d="M876 -212V-437Q801 -459 735 -459Q607 -459 529 -381T450 -196Q450 -99 505 -13Q285 22 182 155T78 468Q78 692 226 842T603 992Q824 992 964 845T1105 447V420H384Q391 288 467 233T629 178Q740 178 853 292L1093 215Q967 12 692 -20Q662 -80 662 -127Q662 -168 688 -200T768 -232Q811 -232 876 -212ZM794 592Q785 677 729 732T587 787Q417 787 389 592H794Z"  />
<glyph unicode="&#x11A;" horiz-adv-x="1366" d="M68 0V235H235V1156H68V1391H1294V950H1028V1156H597V835H945V600H597V235H1028V443H1294V0H68ZM831 1489H531L288 1857H463L681 1639L899 1857H1074L831 1489Z"  />
<glyph unicode="&#x11B;" horiz-adv-x="1174" d="M853 292L1093 215Q942 -22 621 -22Q362 -22 220 113T78 468Q78 692 226 842T603 992Q816 992 960 849T1105 420H384Q391 288 467 233T629 178Q740 178 853 292ZM794 592Q785 677 729 732T587 787Q417 787 389 592H794ZM742 1069H442L199 1437H374L592 1219L810 1437H985L742 1069Z"  />
<glyph unicode="&#x11C;" horiz-adv-x="1729" d="M982 467V702H1634Q1634 449 1543 301T1277 68T885 -17Q508 -17 307 185T105 698Q105 914 205 1079T474 1329T841 1413Q1121 1413 1277 1277V1391H1513V897H1277Q1240 1022 1130 1094T894 1166Q728 1166 611 1049T494 723Q494 485 613 361T903 236Q1029 236 1112 297T1227 467H982ZM707 1857H1007L1250 1489H1075L857 1707L639 1489H464L707 1857Z"  />
<glyph unicode="&#x11D;" horiz-adv-x="1280" d="M1246 968V744H1086V29Q1086 -450 580 -450Q290 -450 148 -345L298 -140Q415 -212 533 -212Q636 -212 706 -159T777 47V121Q626 -14 483 -14Q315 -14 197 126T78 485Q78 704 200 843T498 983Q667 983 777 850V968H1246ZM778 481Q778 598 726 666T584 734Q492 734 444 664T395 484Q395 374 445 305T584 235Q665 235 721 299T778 481ZM499 1437H799L1042 1069H867L649 1287L431 1069H256L499 1437Z"  />
<glyph unicode="&#x11E;" horiz-adv-x="1729" d="M982 467V702H1634Q1634 449 1543 301T1277 68T885 -17Q508 -17 307 185T105 698Q105 914 205 1079T474 1329T841 1413Q1121 1413 1277 1277V1391H1513V897H1277Q1240 1022 1130 1094T894 1166Q728 1166 611 1049T494 723Q494 485 613 361T903 236Q1029 236 1112 297T1227 467H982ZM1038 1852H1253Q1239 1702 1126 1598T865 1494Q719 1494 605 1598T477 1852H693Q735 1706 865 1706Q995 1706 1038 1852Z"  />
<glyph unicode="&#x11F;" horiz-adv-x="1280" d="M1246 968V744H1086V29Q1086 -450 580 -450Q290 -450 148 -345L298 -140Q415 -212 533 -212Q636 -212 706 -159T777 47V121Q626 -14 483 -14Q315 -14 197 126T78 485Q78 704 200 843T498 983Q667 983 777 850V968H1246ZM778 481Q778 598 726 666T584 734Q492 734 444 664T395 484Q395 374 445 305T584 235Q665 235 721 299T778 481ZM814 1432H1029Q1015 1282 902 1178T641 1074Q495 1074 381 1178T253 1432H469Q511 1286 641 1286Q771 1286 814 1432Z"  />
<glyph unicode="&#x120;" horiz-adv-x="1729" d="M982 467V702H1634Q1634 449 1543 301T1277 68T885 -17Q508 -17 307 185T105 698Q105 914 205 1079T474 1329T841 1413Q1121 1413 1277 1277V1391H1513V897H1277Q1240 1022 1130 1094T894 1166Q728 1166 611 1049T494 723Q494 485 613 361T903 236Q1029 236 1112 297T1227 467H982ZM1027 1650Q1027 1591 985 1548T882 1505Q822 1505 780 1547T737 1650Q737 1709 779 1751T882 1794Q944 1794 985 1751T1027 1650Z"  />
<glyph unicode="&#x121;" horiz-adv-x="1280" d="M1246 968V744H1086V29Q1086 -450 580 -450Q290 -450 148 -345L298 -140Q415 -212 533 -212Q636 -212 706 -159T777 47V121Q626 -14 483 -14Q315 -14 197 126T78 485Q78 704 200 843T498 983Q667 983 777 850V968H1246ZM778 481Q778 598 726 666T584 734Q492 734 444 664T395 484Q395 374 445 305T584 235Q665 235 721 299T778 481ZM794 1249Q794 1190 752 1147T649 1104Q589 1104 547 1146T504 1249Q504 1308 546 1350T649 1393Q711 1393 752 1350T794 1249Z"  />
<glyph unicode="&#x122;" horiz-adv-x="1729" d="M617 -454V-352Q827 -352 827 -271Q827 -209 707 -201L744 -9Q429 31 267 229T105 698Q105 1016 313 1214T841 1413Q1121 1413 1277 1277V1391H1513V897H1277Q1240 1022 1130 1094T894 1166Q726 1166 610 1047T494 723Q494 485 613 361T903 236Q1013 236 1103 292T1227 467H982V702H1634Q1635 406 1497 239Q1306 7 923 -16L914 -69Q999 -81 1049 -133T1099 -252Q1099 -335 1023 -395T710 -456Q670 -456 617 -454Z"  />
<glyph unicode="&#x123;" horiz-adv-x="1280" d="M1246 968V744H1086V29Q1086 -450 580 -450Q290 -450 148 -345L298 -140Q415 -212 533 -212Q636 -212 706 -159T777 47V121Q626 -14 483 -14Q315 -14 197 126T78 485Q78 704 200 843T498 983Q667 983 777 850V968H1246ZM778 481Q778 598 726 666T584 734Q492 734 444 664T395 484Q395 374 445 305T584 235Q665 235 721 299T778 481ZM481 1209V1345Q546 1351 587 1389T629 1539H481V1840H782V1561Q782 1382 719 1296T481 1209Z"  />
<glyph unicode="&#x124;" horiz-adv-x="1556" d="M63 0V235H237V1156H63V1391H735V1156H589V851H968V1156H827V1391H1495V1156H1320V235H1495V0H827V235H968V615H589V235H735V0H63ZM629 1857H929L1172 1489H997L779 1707L561 1489H386L629 1857Z"  />
<glyph unicode="&#x125;" horiz-adv-x="1280" d="M56 0V223H212V1168H56V1391H520V890Q666 992 795 992Q1092 992 1092 635V223H1234V0H783V621Q783 689 759 714T685 740Q616 740 520 679V223H658V0H56ZM520 1834H820L1063 1466H888L670 1684L452 1466H277L520 1834Z"  />
<glyph unicode="&#x126;" horiz-adv-x="1556" d="M237 930H51V1079H237V1156H63V1391H735V1156H589V1079H968V1156H827V1391H1495V1156H1320V1079H1506V930H1320V235H1495V0H827V235H968V615H589V235H735V0H63V235H237V930ZM589 930V851H968V930H589Z"  />
<glyph unicode="&#x127;" horiz-adv-x="1280" d="M212 1124V1196H56V1391H520V1124H703V1015H520V890Q666 992 795 992Q1092 992 1092 635V223H1234V0H783V621Q783 703 750 721T685 740Q613 740 520 679V223H658V0H56V223H212V1015H33V1124H212Z"  />
<glyph unicode="&#x128;" horiz-adv-x="874" d="M45 0V235H256V1156H45V1391H831V1156H618V235H831V0H45ZM687 1858H829V1834Q829 1716 766 1625T597 1534Q558 1534 528 1545T415 1598Q315 1649 278 1649Q201 1649 197 1541H47Q47 1692 116 1777T275 1862Q336 1862 428 1815Q563 1745 600 1745Q633 1745 659 1777T687 1858Z"  />
<glyph unicode="&#x129;" horiz-adv-x="725" d="M86 744V968H542V223H686V0H86V223H233V744H86ZM561 1404H703V1380Q703 1262 640 1171T471 1080Q432 1080 402 1091T289 1144Q189 1195 152 1195Q75 1195 71 1087H-79Q-79 1238 -10 1323T149 1408Q210 1408 302 1361Q437 1291 474 1291Q507 1291 533 1323T561 1404Z"  />
<glyph unicode="&#x12A;" horiz-adv-x="874" d="M45 0V235H256V1156H45V1391H831V1156H618V235H831V0H45ZM8 1530V1737H852V1530H8Z"  />
<glyph unicode="&#x12B;" horiz-adv-x="725" d="M86 744V968H542V223H686V0H86V223H233V744H86ZM-36 1111V1318H808V1111H-36Z"  />
<glyph unicode="&#x12E;" horiz-adv-x="874" d="M525 0Q488 -73 488 -130Q488 -168 514 -200T589 -232Q637 -232 702 -212V-437Q627 -459 557 -459Q434 -459 355 -381T275 -196Q275 -94 340 0H45V235H256V1156H45V1391H831V1156H618V235H831V0H525Z"  />
<glyph unicode="&#x12F;" horiz-adv-x="725" d="M391 1415Q462 1415 511 1365T560 1245Q560 1175 511 1126T391 1076Q321 1076 272 1126T222 1245Q222 1315 271 1365T391 1415ZM423 0Q385 -73 385 -125Q385 -170 412 -201T486 -232Q535 -232 600 -212V-437Q524 -459 455 -459Q331 -459 252 -381T173 -196Q173 -91 237 0H86V223H233V744H86V968H542V223H686V0H423Z"  />
<glyph unicode="&#x130;" horiz-adv-x="874" d="M45 0V235H256V1156H45V1391H831V1156H618V235H831V0H45ZM583 1651Q583 1592 541 1549T438 1506Q378 1506 336 1548T293 1651Q293 1710 335 1752T438 1795Q500 1795 541 1752T583 1651Z"  />
<glyph unicode="&#x131;" horiz-adv-x="725" d="M86 744V968H542V223H686V0H86V223H233V744H86Z"  />
<glyph unicode="&#x132;" horiz-adv-x="1707" d="M42 0V235H253V1156H42V1391H828V1156H615V235H828V0H42ZM874 -403V-151Q933 -168 978 -168Q1061 -168 1097 -122T1133 40V1156H926V1391H1683V1156H1495V27Q1495 -205 1382 -316T1083 -428Q988 -428 874 -403Z"  />
<glyph unicode="&#x133;" horiz-adv-x="1344" d="M429 1415Q499 1415 548 1365T598 1245Q598 1175 549 1126T429 1076Q359 1076 310 1126T260 1245Q260 1315 309 1365T429 1415ZM1045 1415Q1116 1415 1165 1365T1214 1245Q1214 1175 1165 1126T1045 1076Q975 1076 926 1126T876 1245Q876 1315 925 1365T1045 1415ZM130 744V968H586V223H723V0H130V223H277V744H130ZM762 744V968H1206V31Q1206 -151 1174 -239T1046 -378T767 -428Q699 -428 656 -423V-174Q658 -174 679 -176Q722 -178 742 -178Q798 -178 834 -160T883 -113T897 0V744H762Z"  />
<glyph unicode="&#x134;" horiz-adv-x="831" d="M-14 -403V-151Q45 -168 90 -168Q173 -168 209 -122T245 40V1156H38V1391H796V1156H607V27Q607 -205 495 -316T195 -428Q101 -428 -14 -403ZM241 1857H541L784 1489H609L391 1707L173 1489H-2L241 1857Z"  />
<glyph unicode="&#x135;" horiz-adv-x="725" d="M116 1437H416L659 1069H484L266 1287L48 1069H-127L116 1437ZM81 744V968H539V31Q539 -151 506 -239T378 -377T98 -428Q30 -428 -13 -423V-174Q17 -178 45 -178Q134 -178 171 -159T219 -110T230 0V744H81Z"  />
<glyph unicode="&#x136;" horiz-adv-x="1599" d="M41 0V235H228V1156H41V1391H766V1156H590V235H752V0H41ZM860 0V235H1022L601 730L1055 1156H889V1391H1568V1156H1398L1006 772L1462 235H1606V0H860ZM615 -91L691 -90Q1010 -90 1010 -265Q1010 -464 627 -464Q602 -464 542 -462V-359Q673 -356 706 -332T739 -283Q739 -235 612 -232L615 -91Z"  />
<glyph unicode="&#x137;" horiz-adv-x="1323" d="M70 0V223H226V1168H70V1391H534V512L867 783H662V968H1247V772H1150L867 530L1125 223H1259V0H962L534 512V212H651V0H70ZM476 -91L552 -90Q871 -90 871 -265Q871 -464 488 -464Q463 -464 403 -462V-359Q534 -356 567 -332T600 -283Q600 -235 473 -232L476 -91Z"  />
<glyph unicode="&#x139;" horiz-adv-x="1323" d="M57 0V235H256V1156H57V1391H821V1156H618V235H1029V665H1300V0H57ZM507 1524L659 1842H1035L671 1524H507Z"  />
<glyph unicode="&#x13A;" horiz-adv-x="725" d="M75 0V223H227V1168H75V1391H536V223H675V0H75ZM221 1490L373 1808H749L385 1490H221Z"  />
<glyph unicode="&#x13B;" horiz-adv-x="1323" d="M57 0V235H256V1156H57V1391H821V1156H618V235H1029V665H1300V0H57ZM476 -91L552 -90Q871 -90 871 -265Q871 -464 488 -464Q463 -464 403 -462V-359Q534 -356 567 -332T600 -283Q600 -235 473 -232L476 -91Z"  />
<glyph unicode="&#x13C;" horiz-adv-x="725" d="M75 0V223H227V1168H75V1391H536V223H675V0H75ZM192 -91L268 -90Q587 -90 587 -265Q587 -464 204 -464Q179 -464 119 -462V-359Q250 -356 283 -332T316 -283Q316 -235 189 -232L192 -91Z"  />
<glyph unicode="&#x13D;" horiz-adv-x="1323" d="M57 0V235H256V1156H57V1391H821V1156H618V235H1029V665H1300V0H57ZM951 760V896Q1016 902 1057 940T1099 1090H951V1391H1252V1112Q1252 933 1189 847T951 760Z"  />
<glyph unicode="&#x13E;" horiz-adv-x="981" d="M75 0V223H227V1168H75V1391H536V223H675V0H75ZM649 760V896Q714 902 755 940T797 1090H649V1391H950V1112Q950 933 887 847T649 760Z"  />
<glyph unicode="&#x13F;" horiz-adv-x="1323" d="M57 0V235H256V1156H57V1391H821V1156H618V235H1029V665H1300V0H57ZM1080 910Q1080 851 1037 809T935 766Q875 766 833 808T790 910Q790 971 832 1013T935 1055Q997 1055 1038 1012T1080 910Z"  />
<glyph unicode="&#x140;" horiz-adv-x="981" d="M60 0V223H212V1168H60V1391H521V223H660V0H60ZM924 695Q924 636 881 594T779 551Q719 551 677 593T634 695Q634 756 676 798T779 840Q841 840 882 797T924 695Z"  />
<glyph unicode="&#x141;" horiz-adv-x="1323" d="M256 636V1156H57V1391H821V1156H618V903L845 1070V896L618 729V235H1029V665H1300V0H57V235H256V462L57 315V489L256 636Z"  />
<glyph unicode="&#x142;" horiz-adv-x="725" d="M227 633V1168H75V1391H536V881L675 993V834L536 723V223H675V0H75V223H227V475L75 353V511L227 633Z"  />
<glyph unicode="&#x143;" horiz-adv-x="1622" d="M55 0V235H241V1156H55V1391H638L1151 523V1156H970V1391H1594V1156H1399V-10H1089L489 1021V235H664V0H55ZM716 1524L868 1842H1244L880 1524H716Z"  />
<glyph unicode="&#x144;" horiz-adv-x="1280" d="M73 744V968H530V878Q670 983 814 983Q1107 983 1107 609V223H1253V0H798V586Q798 665 777 694T706 723Q620 723 530 660V223H679V0H73V223H221V744H73ZM509 1095L661 1413H1037L673 1095H509Z"  />
<glyph unicode="&#x145;" horiz-adv-x="1622" d="M55 0V235H241V1156H55V1391H638L1151 523V1156H970V1391H1594V1156H1399V-10H1089L489 1021V235H664V0H55ZM626 -91L702 -90Q1021 -90 1021 -265Q1021 -464 638 -464Q613 -464 553 -462V-359Q684 -356 717 -332T750 -283Q750 -235 623 -232L626 -91Z"  />
<glyph unicode="&#x146;" horiz-adv-x="1280" d="M73 744V968H530V878Q670 983 814 983Q1107 983 1107 609V223H1253V0H798V586Q798 665 777 694T706 723Q620 723 530 660V223H679V0H73V223H221V744H73ZM455 -91L531 -90Q850 -90 850 -265Q850 -464 467 -464Q442 -464 382 -462V-359Q513 -356 546 -332T579 -283Q579 -235 452 -232L455 -91Z"  />
<glyph unicode="&#x147;" horiz-adv-x="1622" d="M55 0V235H241V1156H55V1391H638L1151 523V1156H970V1391H1594V1156H1399V-10H1089L489 1021V235H664V0H55ZM965 1489H665L422 1857H597L815 1639L1033 1857H1208L965 1489Z"  />
<glyph unicode="&#x148;" horiz-adv-x="1280" d="M73 744V968H530V878Q670 983 814 983Q1107 983 1107 609V223H1253V0H798V586Q798 665 777 694T706 723Q620 723 530 660V223H679V0H73V223H221V744H73ZM813 1069H513L270 1437H445L663 1219L881 1437H1056L813 1069Z"  />
<glyph unicode="&#x149;" horiz-adv-x="1621" d="M401 744V968H858V878Q998 983 1142 983Q1435 983 1435 609V223H1581V0H1126V586Q1126 665 1105 694T1034 723Q948 723 858 660V223H1007V0H401V223H549V744H401ZM-1 724V860Q64 866 105 904T147 1054H-1V1355H300V1076Q300 897 237 811T-1 724Z"  />
<glyph unicode="&#x14C;" horiz-adv-x="1749" d="M874 1413Q1234 1413 1440 1205T1647 698Q1647 398 1440 191T874 -17Q501 -17 301 196T101 698Q101 996 306 1204T874 1413ZM874 1159Q714 1159 603 1039T491 687Q491 482 601 359T874 236Q1034 236 1146 356T1258 704Q1258 907 1151 1033T874 1159ZM452 1530V1737H1296V1530H452Z"  />
<glyph unicode="&#x14D;" horiz-adv-x="1174" d="M587 -22Q373 -22 226 113T78 485Q78 721 225 856T587 992Q802 992 949 857T1096 485Q1096 252 951 115T587 -22ZM586 218Q672 218 725 284T779 491Q779 615 727 684T586 754Q395 754 395 478Q395 365 442 292T586 218ZM165 1111V1318H1009V1111H165Z"  />
<glyph unicode="&#x14E;" horiz-adv-x="1749" d="M874 1413Q1234 1413 1440 1205T1647 698Q1647 398 1440 191T874 -17Q501 -17 301 196T101 698Q101 996 306 1204T874 1413ZM874 1159Q714 1159 603 1039T491 687Q491 482 601 359T874 236Q1034 236 1146 356T1258 704Q1258 907 1151 1033T874 1159ZM1047 1851H1262Q1248 1701 1135 1597T874 1493Q728 1493 614 1597T486 1851H702Q744 1705 874 1705Q1004 1705 1047 1851Z"  />
<glyph unicode="&#x14F;" horiz-adv-x="1174" d="M587 -22Q373 -22 226 113T78 485Q78 721 225 856T587 992Q802 992 949 857T1096 485Q1096 252 951 115T587 -22ZM586 218Q672 218 725 284T779 491Q779 615 727 684T586 754Q395 754 395 478Q395 365 442 292T586 218ZM760 1427H975Q961 1277 848 1173T587 1069Q441 1069 327 1173T199 1427H415Q457 1281 587 1281Q717 1281 760 1427Z"  />
<glyph unicode="&#x150;" horiz-adv-x="1749" d="M874 1413Q1234 1413 1440 1205T1647 698Q1647 398 1440 191T874 -17Q501 -17 301 196T101 698Q101 996 306 1204T874 1413ZM874 1159Q714 1159 603 1039T491 687Q491 482 601 359T874 236Q1034 236 1146 356T1258 704Q1258 907 1151 1033T874 1159ZM504 1524L656 1842H1032L668 1524H504ZM987 1524L1139 1842H1514L1151 1524H987Z"  />
<glyph unicode="&#x151;" horiz-adv-x="1174" d="M587 -22Q373 -22 226 113T78 485Q78 721 225 856T587 992Q802 992 949 857T1096 485Q1096 252 951 115T587 -22ZM586 218Q672 218 725 284T779 491Q779 615 727 684T586 754Q395 754 395 478Q395 365 442 292T586 218ZM216 1095L368 1413H744L380 1095H216ZM699 1095L851 1413H1226L863 1095H699Z"  />
<glyph unicode="&#x152;" horiz-adv-x="2068" d="M1995 444V0H920Q738 0 651 12T453 75T261 218T138 427T98 688Q98 893 172 1046T348 1270T582 1366T960 1391H1995V947H1730V1156H1329V834H1651V599H1329V235H1730V444H1995ZM967 1156Q802 1156 736 1144T606 1073T509 921T476 698Q476 520 547 409T699 269T967 235V1156Z"  />
<glyph unicode="&#x153;" horiz-adv-x="2068" d="M1745 296L1986 223Q1940 121 1809 50T1488 -22Q1205 -22 1059 117Q886 -22 636 -22Q373 -22 226 126T78 481Q78 693 228 842T641 992Q877 992 1059 847Q1199 992 1449 992Q1689 992 1844 836T1999 470Q1999 454 1998 422H1213Q1221 314 1298 251T1488 187Q1657 187 1745 296ZM1686 593Q1666 684 1600 734T1447 785Q1360 785 1295 730T1222 593H1686ZM894 492Q894 619 824 701T647 784Q538 784 467 698T395 489Q395 370 462 277T647 183Q765 183 829 275T894 492Z"  />
<glyph unicode="&#x154;" horiz-adv-x="1493" d="M1497 235V0H1073L759 609H600V235H774V0H47V235H238V1156H47V1391H886Q1123 1391 1227 1272T1332 1001Q1332 764 1091 655L1317 235H1497ZM600 831H724Q954 831 954 995Q954 1076 902 1116T757 1156H600V831ZM625 1524L777 1842H1153L789 1524H625Z"  />
<glyph unicode="&#x155;" horiz-adv-x="918" d="M736 223V0H55V223H234V744H66V968H517V722Q543 828 635 905T854 983Q875 983 904 982V690Q787 690 713 664T591 550T543 342V223H736ZM325 1095L477 1413H853L489 1095H325Z"  />
<glyph unicode="&#x156;" horiz-adv-x="1493" d="M1497 235V0H1073L759 609H600V235H774V0H47V235H238V1156H47V1391H886Q1123 1391 1227 1272T1332 1001Q1332 764 1091 655L1317 235H1497ZM600 831H724Q954 831 954 995Q954 1076 902 1116T757 1156H600V831ZM562 -91L638 -90Q957 -90 957 -265Q957 -464 574 -464Q549 -464 489 -462V-359Q620 -356 653 -332T686 -283Q686 -235 559 -232L562 -91Z"  />
<glyph unicode="&#x157;" horiz-adv-x="918" d="M736 223V0H55V223H234V744H66V968H517V722Q543 828 635 905T854 983Q875 983 904 982V690Q787 690 713 664T591 550T543 342V223H736ZM274 -91L350 -90Q669 -90 669 -265Q669 -464 286 -464Q261 -464 201 -462V-359Q332 -356 365 -332T398 -283Q398 -235 271 -232L274 -91Z"  />
<glyph unicode="&#x158;" horiz-adv-x="1493" d="M1497 235V0H1073L759 609H600V235H774V0H47V235H238V1156H47V1391H886Q1123 1391 1227 1272T1332 1001Q1332 764 1091 655L1317 235H1497ZM600 831H724Q954 831 954 995Q954 1076 902 1116T757 1156H600V831ZM898 1489H598L355 1857H530L748 1639L966 1857H1141L898 1489Z"  />
<glyph unicode="&#x159;" horiz-adv-x="918" d="M736 223V0H55V223H234V744H66V968H517V722Q543 828 635 905T854 983Q875 983 904 982V690Q787 690 713 664T591 550T543 342V223H736ZM629 1069H329L86 1437H261L479 1219L697 1437H872L629 1069Z"  />
<glyph unicode="&#x15A;" horiz-adv-x="1087" d="M89 0V474H325Q329 344 393 283T539 221Q604 221 647 265T691 370Q691 434 648 477T491 577Q250 694 164 783T77 1023Q77 1205 191 1305T450 1405Q616 1405 707 1276V1391H942V968H707Q696 1066 640 1119T508 1173Q451 1173 411 1142T370 1061Q370 1019 404 980T596 870Q750 801 832 746T963 602T1011 397Q1011 188 889 86T607 -17Q424 -17 325 118V0H89ZM421 1524L573 1842H949L585 1524H421Z"  />
<glyph unicode="&#x15B;" horiz-adv-x="1044" d="M119 0V333H345Q348 265 408 225T556 184Q635 184 676 211T717 278Q717 311 686 333T525 377Q256 421 169 506T82 698Q82 816 178 899T440 983Q571 983 685 935V968H906V687H685Q655 788 473 788Q339 788 339 714Q339 686 366 672T507 637Q686 606 775 575T917 473T971 301Q971 159 870 69T582 -22Q409 -22 345 48V0H119ZM373 1095L525 1413H901L537 1095H373Z"  />
<glyph unicode="&#x15C;" horiz-adv-x="1087" d="M89 0V474H325Q329 344 393 283T539 221Q604 221 647 265T691 370Q691 434 648 477T491 577Q250 694 164 783T77 1023Q77 1205 191 1305T450 1405Q616 1405 707 1276V1391H942V968H707Q696 1066 640 1119T508 1173Q451 1173 411 1142T370 1061Q370 1019 404 980T596 870Q750 801 832 746T963 602T1011 397Q1011 188 889 86T607 -17Q424 -17 325 118V0H89ZM361 1857H661L904 1489H729L511 1707L293 1489H118L361 1857Z"  />
<glyph unicode="&#x15D;" horiz-adv-x="1044" d="M119 0V333H345Q348 265 408 225T556 184Q635 184 676 211T717 278Q717 311 686 333T525 377Q256 421 169 506T82 698Q82 816 178 899T440 983Q571 983 685 935V968H906V687H685Q655 788 473 788Q339 788 339 714Q339 686 366 672T507 637Q686 606 775 575T917 473T971 301Q971 159 870 69T582 -22Q409 -22 345 48V0H119ZM377 1437H677L920 1069H745L527 1287L309 1069H134L377 1437Z"  />
<glyph unicode="&#x15E;" horiz-adv-x="1087" d="M641 -16L633 -69Q718 -81 767 -133T817 -252Q817 -335 741 -395T429 -456Q388 -456 335 -454V-352Q546 -352 546 -271Q546 -209 426 -201L467 11Q383 45 333 118V0H97V474H333Q337 344 401 283T547 221Q611 221 655 265T699 370Q699 434 656 477T499 577Q258 694 172 783T85 1023Q85 1205 199 1305T458 1405Q624 1405 715 1276V1391H950V968H715Q704 1066 648 1119T516 1173Q459 1173 419 1142T378 1061Q378 1018 411 980T604 870Q758 801 840 746T971 602T1019 397Q1019 198 911 97T641 -16Z"  />
<glyph unicode="&#x15F;" horiz-adv-x="1044" d="M119 0V333H345Q348 265 408 225T556 184Q635 184 676 211T717 278Q717 311 686 333T525 377Q256 421 169 506T82 698Q82 816 178 899T440 983Q571 983 685 935V968H906V687H685Q655 788 473 788Q339 788 339 714Q339 686 366 672T507 637Q686 606 775 575T917 473T971 301Q971 171 883 81T626 -20L617 -69Q702 -81 751 -134T801 -252Q801 -335 725 -395T413 -456Q372 -456 319 -454V-352Q530 -352 530 -271Q530 -209 410 -201L449 -7Q379 11 345 48V0H119Z"  />
<glyph unicode="&#x160;" horiz-adv-x="1087" d="M97 0V474H333Q337 344 401 283T547 221Q612 221 655 265T699 370Q699 434 656 477T499 577Q258 694 172 783T85 1023Q85 1205 199 1305T458 1405Q624 1405 715 1276V1391H950V968H715Q704 1066 648 1119T516 1173Q459 1173 419 1142T378 1061Q378 1019 412 980T604 870Q758 801 840 746T971 602T1019 397Q1019 188 897 86T615 -17Q432 -17 333 118V0H97ZM710 1490H410L167 1858H342L560 1640L778 1858H953L710 1490Z"  />
<glyph unicode="&#x161;" horiz-adv-x="1044" d="M119 0V333H345Q348 265 408 225T556 184Q635 184 676 211T717 278Q717 311 686 333T525 377Q256 421 169 506T82 698Q82 816 178 899T440 983Q571 983 685 935V968H906V687H685Q655 788 473 788Q339 788 339 714Q339 686 366 672T507 637Q686 606 775 575T917 473T971 301Q971 159 870 69T582 -22Q409 -22 345 48V0H119ZM676 1069H376L133 1437H308L526 1219L744 1437H919L676 1069Z"  />
<glyph unicode="&#x162;" horiz-adv-x="1386" d="M302 0V235H511V1156H302V832H63V1391H1324V832H1088V1156H873V235H1082V0H302ZM515 -91L591 -90Q910 -90 910 -265Q910 -464 527 -464Q502 -464 442 -462V-359Q573 -356 606 -332T639 -283Q639 -235 512 -232L515 -91Z"  />
<glyph unicode="&#x163;" horiz-adv-x="705" d="M39 744V968H162V1120L471 1342V968H649V744H471V325Q471 268 485 249T552 229Q595 229 649 249V35Q530 -14 416 -14Q162 -14 162 238V744H39ZM196 -91L272 -90Q591 -90 591 -265Q591 -464 208 -464Q183 -464 123 -462V-359Q254 -356 287 -332T320 -283Q320 -235 193 -232L196 -91Z"  />
<glyph unicode="&#x164;" horiz-adv-x="1386" d="M302 0V235H511V1156H302V832H63V1391H1324V832H1088V1156H873V235H1082V0H302ZM843 1489H543L300 1857H475L693 1639L911 1857H1086L843 1489Z"  />
<glyph unicode="&#x165;" horiz-adv-x="1109" d="M39 744V968H162V1120L471 1342V968H649V744H471V325Q471 268 485 249T552 229Q595 229 649 249V35Q530 -14 416 -14Q162 -14 162 238V744H39ZM722 759V895Q787 901 828 939T870 1089H722V1390H1023V1111Q1023 932 960 846T722 759Z"  />
<glyph unicode="&#x166;" horiz-adv-x="1386" d="M511 459H266V645H511V1156H302V832H63V1391H1324V832H1088V1156H873V645H1118V459H873V235H1082V0H302V235H511V459Z"  />
<glyph unicode="&#x167;" horiz-adv-x="705" d="M471 554H668V431H471V325Q471 268 485 249T553 229Q598 229 649 249V35Q530 -14 416 -14Q162 -14 162 238V431H27V554H162V744H39V968H162V1120L471 1342V968H649V744H471V554Z"  />
<glyph unicode="&#x168;" horiz-adv-x="1386" d="M37 1156V1391H701V1156H564V527Q564 401 574 346T630 254T744 218Q815 218 862 252T922 337T936 545V1156H801V1391H1355V1156H1185V460Q1185 318 1170 254T1101 126T945 23T709 -17Q555 -17 447 26T285 142T217 285T202 527V1156H37ZM938 1858H1080V1834Q1080 1716 1017 1625T848 1534Q809 1534 779 1545T666 1598Q566 1649 529 1649Q452 1649 448 1541H298Q298 1692 367 1777T526 1862Q587 1862 679 1815Q814 1745 851 1745Q884 1745 910 1777T938 1858Z"  />
<glyph unicode="&#x169;" horiz-adv-x="1280" d="M1230 223V0H765V82Q626 -14 483 -14Q343 -14 264 64T184 286V744H39V968H492V365Q492 293 514 267T594 240Q672 240 765 309V744H616V968H1074V223H1230ZM848 1404H990V1380Q990 1262 927 1171T758 1080Q719 1080 689 1091T576 1144Q476 1195 439 1195Q362 1195 358 1087H208Q208 1238 277 1323T436 1408Q497 1408 589 1361Q724 1291 761 1291Q794 1291 820 1323T848 1404Z"  />
<glyph unicode="&#x16A;" horiz-adv-x="1386" d="M37 1156V1391H701V1156H564V527Q564 401 574 346T630 254T744 218Q815 218 862 252T922 337T936 545V1156H801V1391H1355V1156H1185V460Q1185 318 1170 254T1101 126T945 23T709 -17Q555 -17 447 26T285 142T217 285T202 527V1156H37ZM268 1530V1737H1112V1530H268Z"  />
<glyph unicode="&#x16B;" horiz-adv-x="1280" d="M1230 223V0H765V82Q626 -14 483 -14Q343 -14 264 64T184 286V744H39V968H492V365Q492 293 514 267T594 240Q672 240 765 309V744H616V968H1074V223H1230ZM184 1111V1318H1028V1111H184Z"  />
<glyph unicode="&#x16C;" horiz-adv-x="1386" d="M37 1156V1391H701V1156H564V527Q564 401 574 346T630 254T744 218Q815 218 862 252T922 337T936 545V1156H801V1391H1355V1156H1185V460Q1185 318 1170 254T1101 126T945 23T709 -17Q555 -17 447 26T285 142T217 285T202 527V1156H37ZM863 1851H1078Q1064 1701 951 1597T690 1493Q544 1493 430 1597T302 1851H518Q560 1705 690 1705Q820 1705 863 1851Z"  />
<glyph unicode="&#x16D;" horiz-adv-x="1280" d="M1230 223V0H765V82Q626 -14 483 -14Q343 -14 264 64T184 286V744H39V968H492V365Q492 293 514 267T594 240Q672 240 765 309V744H616V968H1074V223H1230ZM772 1427H987Q973 1277 860 1173T599 1069Q453 1069 339 1173T211 1427H427Q469 1281 599 1281Q729 1281 772 1427Z"  />
<glyph unicode="&#x16E;" horiz-adv-x="1386" d="M37 1156V1391H701V1156H564V527Q564 401 574 346T630 254T744 218Q815 218 862 252T922 337T936 545V1156H801V1391H1355V1156H1185V460Q1185 318 1170 254T1101 126T945 23T709 -17Q555 -17 447 26T285 142T217 285T202 527V1156H37ZM901 1737Q901 1652 841 1589T690 1526Q603 1526 541 1587T479 1737Q479 1824 540 1886T690 1948Q777 1948 839 1886T901 1737ZM799 1737Q799 1780 768 1812T690 1845Q645 1845 614 1813T582 1737Q582 1692 613 1660T690 1628Q735 1628 767 1660T799 1737Z"  />
<glyph unicode="&#x16F;" horiz-adv-x="1280" d="M1230 223V0H765V82Q626 -14 483 -14Q343 -14 264 64T184 286V744H39V968H492V365Q492 293 514 267T594 240Q672 240 765 309V744H616V968H1074V223H1230ZM828 1267Q828 1182 768 1119T617 1056Q530 1056 468 1117T406 1267Q406 1354 467 1416T617 1478Q704 1478 766 1416T828 1267ZM726 1267Q726 1310 695 1342T617 1375Q572 1375 541 1343T509 1267Q509 1222 540 1190T617 1158Q662 1158 694 1190T726 1267Z"  />
<glyph unicode="&#x170;" horiz-adv-x="1386" d="M37 1156V1391H701V1156H564V527Q564 401 574 346T630 254T744 218Q815 218 862 252T922 337T936 545V1156H801V1391H1355V1156H1185V460Q1185 318 1170 254T1101 126T945 23T709 -17Q555 -17 447 26T285 142T217 285T202 527V1156H37ZM319 1524L471 1842H847L483 1524H319ZM802 1524L954 1842H1329L966 1524H802Z"  />
<glyph unicode="&#x171;" horiz-adv-x="1280" d="M1230 223V0H765V82Q626 -14 483 -14Q343 -14 264 64T184 286V744H39V968H492V365Q492 293 514 267T594 240Q672 240 765 309V744H616V968H1074V223H1230ZM222 1095L374 1413H750L386 1095H222ZM705 1095L857 1413H1232L869 1095H705Z"  />
<glyph unicode="&#x172;" horiz-adv-x="1386" d="M31 1156V1391H695V1156H558V527Q558 401 568 346T624 254T738 218Q809 218 856 252T916 337T930 545V1156H795V1391H1349V1156H1179V460Q1179 308 1159 246T1072 97Q964 -42 964 -124Q964 -170 991 -201T1065 -232Q1114 -232 1179 -212V-437Q1103 -459 1034 -459Q904 -459 828 -379T752 -196Q752 -97 811 -8Q751 -17 697 -17Q545 -17 438 28T278 144T211 286T196 527V1156H31Z"  />
<glyph unicode="&#x173;" horiz-adv-x="1280" d="M774 -91T839 0H748V82Q609 -14 466 -14Q332 -14 250 63T167 286V744H22V968H475V365Q475 293 497 267T577 240Q655 240 748 309V744H599V968H1057V223H1213V0H1024Q987 -72 987 -122Q987 -171 1014 -201T1088 -232Q1136 -232 1201 -212V-437Q1126 -459 1056 -459Q933 -459 854 -381T774 -196Q774 -91 839 0Z"  />
<glyph unicode="&#x174;" horiz-adv-x="2028" d="M542 -9L145 1156H-2V1391H625V1156H481L707 488L919 1156H793V1391H1293V1156H1164L1392 488L1611 1156H1472V1391H2029V1156H1878L1494 -9H1234L1015 626L808 -9H542ZM888 1857H1188L1431 1489H1256L1038 1707L820 1489H645L888 1857Z"  />
<glyph unicode="&#x175;" horiz-adv-x="1665" d="M378 -14L124 744H1V968H528V744H422L541 384L739 968H995L1187 384L1306 744H1197V968H1665V744H1544L1293 -14H1025L835 555L648 -14H378ZM714 1437H1014L1257 1069H1082L864 1287L646 1069H471L714 1437Z"  />
<glyph unicode="&#x176;" horiz-adv-x="1430" d="M347 0V235H542V611L165 1156H-5V1391H691V1156H554L758 816L965 1156H822V1391H1435V1156H1264L904 611V235H1098V0H347ZM577 1857H877L1120 1489H945L727 1707L509 1489H334L577 1857Z"  />
<glyph unicode="&#x177;" d="M253 -437V-214H439L503 -41L151 744H11V968H591V744H477L638 309L810 744H684V968H1193V744H1055L591 -437H253ZM452 1437H752L995 1069H820L602 1287L384 1069H209L452 1437Z"  />
<glyph unicode="&#x178;" horiz-adv-x="1430" d="M347 0V235H542V611L165 1156H-5V1391H691V1156H554L758 816L965 1156H822V1391H1435V1156H1264L904 611V235H1098V0H347ZM1087 1651Q1087 1591 1045 1549T943 1506Q883 1506 841 1548T798 1651Q798 1710 840 1752T943 1795Q1002 1795 1044 1753T1087 1651ZM633 1651Q633 1591 590 1549T488 1506Q428 1506 386 1548T343 1651Q343 1710 385 1752T488 1795Q547 1795 590 1753T633 1651Z"  />
<glyph unicode="&#x179;" horiz-adv-x="1323" d="M102 0V235L762 1156H375V903H139V1391H1213V1182L534 235H992V502H1227V0H102ZM565 1524L717 1842H1093L729 1524H565Z"  />
<glyph unicode="&#x17A;" horiz-adv-x="1087" d="M72 0V203L641 772H330V622H119V968H1011V765L442 195H807V361H1011V0H72ZM387 1095L539 1413H915L551 1095H387Z"  />
<glyph unicode="&#x17B;" horiz-adv-x="1323" d="M102 0V235L762 1156H375V903H139V1391H1213V1182L534 235H992V502H1227V0H102ZM809 1650Q809 1591 767 1548T664 1505Q604 1505 562 1547T519 1650Q519 1709 561 1751T664 1794Q726 1794 767 1751T809 1650Z"  />
<glyph unicode="&#x17C;" horiz-adv-x="1087" d="M72 0V203L641 772H330V622H119V968H1011V765L442 195H807V361H1011V0H72ZM705 1249Q705 1190 663 1147T560 1104Q500 1104 458 1146T415 1249Q415 1308 457 1350T560 1393Q622 1393 663 1350T705 1249Z"  />
<glyph unicode="&#x17D;" horiz-adv-x="1323" d="M102 0V235L762 1156H375V903H139V1391H1213V1182L534 235H992V502H1227V0H102ZM815 1490H515L272 1858H447L665 1640L883 1858H1058L815 1490Z"  />
<glyph unicode="&#x17E;" horiz-adv-x="1087" d="M72 0V203L641 772H330V622H119V968H1011V765L442 195H807V361H1011V0H72ZM728 1069H428L185 1437H360L578 1219L796 1437H971L728 1069Z"  />
<glyph unicode="&#x192;" horiz-adv-x="1130" d="M276 851L312 1062H514L530 1151Q558 1301 583 1358T678 1453T862 1491Q1010 1491 1142 1450L1088 1224Q996 1252 928 1252Q873 1252 848 1226T807 1118L796 1062H1004L967 851H762L589 -127Q569 -246 535 -306T434 -398T260 -431Q104 -431 -20 -391L37 -170Q144 -193 205 -193Q266 -193 288 -160T328 -22L478 851H276Z"  />
<glyph unicode="&#x218;" horiz-adv-x="1087" d="M89 0V474H325Q329 344 393 283T539 221Q604 221 647 265T691 370Q691 434 648 477T491 577Q250 694 164 783T77 1023Q77 1205 191 1305T450 1405Q616 1405 707 1276V1391H942V968H707Q696 1066 640 1119T508 1173Q451 1173 411 1142T370 1061Q370 1019 404 980T596 870Q750 801 832 746T963 602T1011 397Q1011 188 889 86T607 -17Q424 -17 325 118V0H89ZM400 -91L476 -90Q795 -90 795 -265Q795 -464 412 -464Q387 -464 327 -462V-359Q458 -356 491 -332T524 -283Q524 -235 397 -232L400 -91Z"  />
<glyph unicode="&#x219;" horiz-adv-x="1044" d="M119 0V333H345Q348 265 408 225T556 184Q635 184 676 211T717 278Q717 311 686 333T525 377Q256 421 169 506T82 698Q82 816 178 899T440 983Q571 983 685 935V968H906V687H685Q655 788 473 788Q339 788 339 714Q339 686 366 672T507 637Q686 606 775 575T917 473T971 301Q971 159 870 69T582 -22Q409 -22 345 48V0H119ZM365 -91L441 -90Q760 -90 760 -265Q760 -464 377 -464Q352 -464 292 -462V-359Q423 -356 456 -332T489 -283Q489 -235 362 -232L365 -91Z"  />
<glyph unicode="&#x21A;" horiz-adv-x="1386" d="M302 0V235H511V1156H302V832H63V1391H1324V832H1088V1156H873V235H1082V0H302ZM515 -91L591 -90Q910 -90 910 -265Q910 -464 527 -464Q502 -464 442 -462V-359Q573 -356 606 -332T639 -283Q639 -235 512 -232L515 -91Z"  />
<glyph unicode="&#x21B;" horiz-adv-x="705" d="M39 744V968H162V1120L471 1342V968H649V744H471V325Q471 268 485 249T552 229Q595 229 649 249V35Q530 -14 416 -14Q162 -14 162 238V744H39ZM196 -91L272 -90Q591 -90 591 -265Q591 -464 208 -464Q183 -464 123 -462V-359Q254 -356 287 -332T320 -283Q320 -235 193 -232L196 -91Z"  />
<glyph unicode="&#x237;" horiz-adv-x="725" d="M80 744V968H539V31Q539 -151 506 -239T377 -377T97 -428Q29 -428 -14 -423V-174Q17 -178 44 -178Q133 -178 170 -159T218 -110T230 0V744H80Z"  />
<glyph unicode="&#x2C6;" horiz-adv-x="682" d="M191 1437H491L734 1069H559L341 1287L123 1069H-52L191 1437Z"  />
<glyph unicode="&#x2C7;" horiz-adv-x="682" d="M491 1069H191L-52 1437H123L341 1219L559 1437H734L491 1069Z"  />
<glyph unicode="&#x2C9;" horiz-adv-x="682" d="M-81 1111V1318H763V1111H-81Z"  />
<glyph unicode="&#x2D8;" horiz-adv-x="682" d="M514 1432H729Q715 1282 602 1178T341 1074Q195 1074 81 1178T-47 1432H169Q211 1286 341 1286Q471 1286 514 1432Z"  />
<glyph unicode="&#x2D9;" horiz-adv-x="682" d="M486 1249Q486 1190 444 1147T341 1104Q281 1104 239 1146T196 1249Q196 1308 238 1350T341 1393Q403 1393 444 1350T486 1249Z"  />
<glyph unicode="&#x2DA;" horiz-adv-x="682" d="M552 1267Q552 1182 492 1119T341 1056Q254 1056 192 1117T130 1267Q130 1354 191 1416T341 1478Q428 1478 490 1416T552 1267ZM450 1267Q450 1310 419 1342T341 1375Q296 1375 265 1343T233 1267Q233 1222 264 1190T341 1158Q386 1158 418 1190T450 1267Z"  />
<glyph unicode="&#x2DB;" horiz-adv-x="682" d="M195 0H380Q342 -73 342 -130Q342 -168 369 -200T443 -232Q492 -232 557 -212V-437Q481 -459 412 -459Q289 -459 210 -381T130 -196Q130 -94 195 0Z"  />
<glyph unicode="&#x2DC;" horiz-adv-x="682" d="M590 1404H732V1380Q732 1262 669 1171T500 1080Q461 1080 431 1091T318 1144Q218 1195 181 1195Q104 1195 100 1087H-50Q-50 1238 19 1323T178 1408Q239 1408 331 1361Q466 1291 503 1291Q536 1291 562 1323T590 1404Z"  />
<glyph unicode="&#x2DD;" horiz-adv-x="682" d="M-30 1095L122 1413H498L134 1095H-30ZM453 1095L605 1413H980L617 1095H453Z"  />
<glyph unicode="&#x394;" horiz-adv-x="1599" d="M1288 1391V1155H1102L1405 236H1563V0H39V236H197L500 1155H315V1391H1288ZM1081 236L801 1155L518 236H1081Z"  />
<glyph unicode="&#x3A9;" horiz-adv-x="1665" d="M911 563Q1188 612 1188 866Q1188 1163 829 1163Q471 1163 471 866Q471 613 748 563V0H100V324H336L328 236H500V340Q96 476 96 862Q96 1099 304 1256T829 1413Q1160 1413 1361 1250T1563 862Q1563 477 1159 340V236H1329L1321 324H1556V0H911V563Z"  />
<glyph unicode="&#x3BC;" horiz-adv-x="1331" d="M526 33V-213H721V-436H55V-213H219L221 743H76V967H530V365Q530 240 631 240Q708 240 803 309V743H653V967H1112V223H1268V0H803V53Q721 -4 643 -4Q575 -4 526 33Z"  />
<glyph unicode="&#x3C0;" horiz-adv-x="1329" d="M530 223H621V0H72V223H221V743H72V967H1255V743H1108V223H1255V0H709V223H799V743H530V223Z"  />
<glyph unicode="&#x2013;" horiz-adv-x="1024" d="M-12 637H1036V387H-12V637Z"  />
<glyph unicode="&#x2014;" horiz-adv-x="2048" d="M-12 637H2060V387H-12V637Z"  />
<glyph unicode="&#x2018;" horiz-adv-x="725" d="M530 1391V1237Q366 1220 366 1039V1021H530V686H196V997Q196 1236 284 1313T530 1391Z"  />
<glyph unicode="&#x2019;" horiz-adv-x="725" d="M196 686V837Q360 853 360 1034V1053H196V1391H530V1077Q530 932 500 851T392 728T196 686Z"  />
<glyph unicode="&#x201A;" horiz-adv-x="725" d="M196 -370V-219Q360 -203 360 -22V-4H196V335H530V21Q530 -217 441 -293T196 -370Z"  />
<glyph unicode="&#x201C;" d="M520 1391V1237Q356 1220 356 1039V1021H520V686H186V997Q186 1236 274 1313T520 1391ZM1032 1391V1237Q868 1220 868 1039V1021H1032V686H698V997Q698 1236 786 1313T1032 1391Z"  />
<glyph unicode="&#x201D;" d="M187 690V841Q351 857 351 1038V1056H187V1391H521V1081Q521 904 480 830T367 723T187 690ZM693 690V841Q857 857 857 1038V1056H693V1391H1027V1081Q1027 843 938 767T693 690Z"  />
<glyph unicode="&#x201E;" d="M188 -366V-216Q352 -199 352 -18V0H188V335H522V24Q522 -120 492 -202T384 -325T188 -366ZM691 -366V-216Q856 -199 856 -18V0H691V335H1025V24Q1025 -214 937 -290T691 -366Z"  />
<glyph unicode="&#x2020;" horiz-adv-x="1004" d="M435 -415L364 308V525Q428 610 435 776Q258 776 199 723H10V973H199Q258 930 435 914Q437 940 437 953Q437 1006 419 1074T364 1188V1391H640V1188Q568 1098 568 948Q568 938 570 914Q747 931 806 973H995V723H806Q747 776 570 776Q576 610 640 525V308L570 -415H435Z"  />
<glyph unicode="&#x2021;" horiz-adv-x="1004" d="M638 1391V1186Q572 1086 572 966V949Q679 949 765 1003H959V756H765Q705 806 572 809Q569 787 569 767Q569 602 670 487Q569 379 569 207Q569 186 572 164Q707 167 765 218H959V-29H765Q679 25 572 25Q572 -113 638 -212V-417H366V-212Q432 -115 432 25Q325 25 239 -29H45V218H239Q297 167 432 164Q435 186 435 207Q435 379 334 487Q435 594 435 767Q435 787 432 809Q299 806 239 756H45V1003H239Q325 949 432 949Q423 1104 366 1186V1391H638Z"  />
<glyph unicode="&#x2022;" horiz-adv-x="725" d="M363 981Q478 981 563 900T648 696Q648 578 565 494T363 410Q244 410 161 493T77 696Q77 814 161 897T363 981Z"  />
<glyph unicode="&#x2026;" horiz-adv-x="2048" d="M174 0V335H509V0H174ZM857 0V335H1192V0H857ZM1540 0V335H1875V0H1540Z"  />
<glyph unicode="&#x2030;" horiz-adv-x="2390" d="M387 671Q93 671 93 1043Q93 1415 388 1415Q533 1415 607 1319T681 1043Q681 671 387 671ZM385 799Q470 799 470 1042Q470 1287 387 1287Q304 1287 304 1044Q304 799 385 799ZM214 0L1221 1391H1399L392 0H214ZM2004 -18Q1710 -18 1710 354Q1710 726 2005 726Q2151 726 2224 629T2298 354Q2298 -18 2004 -18ZM2002 110Q2087 110 2087 353Q2087 598 2005 598Q1922 598 1922 355Q1922 110 2002 110ZM1238 -18Q944 -18 944 354Q944 726 1239 726Q1384 726 1458 629T1532 354Q1532 -18 1238 -18ZM1236 110Q1321 110 1321 353Q1321 598 1238 598Q1155 598 1155 355Q1155 110 1236 110Z"  />
<glyph unicode="&#x2039;" horiz-adv-x="555" d="M241 0L10 484L241 968H537L312 484L537 0H241Z"  />
<glyph unicode="&#x203A;" horiz-adv-x="555" d="M313 0H18L243 484L18 968H313L545 484L313 0Z"  />
<glyph unicode="&#x2044;" horiz-adv-x="682" d="M-252 0L755 1391H934L-73 0H-252Z"  />
<glyph unicode="&#x20AC;" horiz-adv-x="1130" d="M1049 377Q1015 193 912 88T586 -18Q198 -18 123 475H4V635H109V698V762H4V922H125Q167 1159 283 1287T569 1415Q656 1415 714 1389T831 1303V1391H1012V987H836Q798 1098 753 1144T618 1190Q534 1190 490 1126T432 922H717V762H426V694V635H717V475H434Q460 207 606 207Q701 207 752 260T819 430L1049 377Z"  />
<glyph unicode="&#x2113;" horiz-adv-x="661" d="M4 380L145 590V1006Q145 1176 174 1253T266 1372T424 1415Q531 1415 593 1362T656 1204Q656 1051 516 828Q395 635 387 617V328Q387 239 396 212T436 184Q480 184 625 274V53Q496 -29 381 -29Q287 -29 218 25T145 255L126 229L4 380ZM387 990Q470 1118 470 1178Q470 1223 429 1223Q404 1223 396 1201T387 1100V990Z"  />
<glyph unicode="&#x2122;" horiz-adv-x="2048" d="M401 572V1249H148V1391H813V1249H567V572H401ZM912 572V1391H1171L1320 827L1470 1391H1729V572H1571V1225L1394 572H1244L1068 1225V572H912Z"  />
<glyph unicode="&#x2126;" horiz-adv-x="1573" d="M462 206Q77 368 77 811Q77 1112 264 1307T770 1503Q988 1503 1140 1437T1401 1205T1510 811Q1510 580 1404 432T1128 208L1458 231H1530V0H888V243Q1194 390 1194 785Q1194 1028 1081 1156T785 1284Q597 1284 493 1143T388 791Q388 607 466 459T700 243V0H55V230H153L462 206Z"  />
<glyph unicode="&#x212E;" horiz-adv-x="1229" d="M321 531V160Q441 39 619 39Q873 39 1014 285L1086 242Q969 73 855 20T619 -34Q389 -34 240 122T90 531Q90 779 238 937T619 1096Q833 1096 985 954T1148 531H321ZM917 605V902Q793 1023 617 1023Q442 1023 321 901V605H917Z"  />
<glyph unicode="&#x2202;" horiz-adv-x="1012" d="M377 1123L240 1207Q291 1354 394 1422T610 1491Q766 1491 870 1359T975 942Q975 695 898 454T675 94T354 -25Q212 -25 127 69T42 328Q42 588 246 765T785 943Q797 943 824 942Q824 1121 766 1215T605 1309Q468 1309 377 1123ZM812 758Q783 759 772 759Q543 759 407 635T271 338Q271 268 310 217T412 165Q549 165 663 325T812 758Z"  />
<glyph unicode="&#x2206;" horiz-adv-x="1259" d="M1229 0H29L657 1387L1229 0ZM993 82L594 1049L154 82H993Z"  />
<glyph unicode="&#x220F;" horiz-adv-x="1686" d="M162 1415H1524V-450H1331V1241H355V-450H162V1415Z"  />
<glyph unicode="&#x2211;" horiz-adv-x="1460" d="M139 1415H1376V1251H388L995 504L348 -286H1386V-450H122V-263L742 496L139 1240V1415Z"  />
<glyph unicode="&#x2212;" horiz-adv-x="1368" d="M122 823H1246V574H122V823Z"  />
<glyph unicode="&#x2215;" horiz-adv-x="682" d="M-252 0L755 1391H934L-73 0H-252Z"  />
<glyph unicode="&#x2219;" horiz-adv-x="748" d="M206 531V866H541V531H206Z"  />
<glyph unicode="&#x221A;" horiz-adv-x="1131" d="M1053 1869H1127L815 -78L319 943L121 852L87 916L388 1067L793 244L1053 1869Z"  />
<glyph unicode="&#x221E;" horiz-adv-x="1195" d="M547 819Q681 1048 870 1048Q995 1048 1086 958T1177 699Q1177 531 1087 440T870 349Q681 349 547 578Q498 503 418 455T260 406Q153 406 86 489T18 699Q18 824 85 907T260 991Q423 991 547 819ZM640 701Q734 552 779 525T873 497Q946 497 988 551T1031 702Q1031 795 988 848T876 901Q764 901 640 701ZM461 702Q365 843 271 843Q222 843 190 806T158 707Q158 645 188 603T271 560Q351 560 461 702Z"  />
<glyph unicode="&#x222B;" horiz-adv-x="555" d="M198 609L211 1032Q217 1228 237 1305T278 1423T343 1494T432 1524Q486 1524 521 1489T557 1417Q557 1373 532 1343T465 1313Q430 1313 389 1349Q366 1369 349 1369Q309 1369 309 1305Q309 1263 318 1160Q355 750 355 477Q355 427 343 25T266 -468T116 -559Q67 -559 32 -527T-3 -438Q-3 -395 22 -367T87 -339Q127 -339 157 -372Q185 -403 205 -403Q244 -403 244 -342Q244 -300 235 -222Q198 93 198 609Z"  />
<glyph unicode="&#x2248;" horiz-adv-x="1368" d="M1246 878Q1084 737 927 737Q863 737 802 758T633 832Q500 897 431 897Q281 897 122 746V1001Q286 1143 450 1143Q548 1143 720 1058Q873 983 949 983Q1079 983 1246 1134V878ZM1246 396Q1084 254 927 254Q857 254 792 278T633 349Q500 414 431 414Q281 414 122 263V519Q286 660 450 660Q548 660 720 575Q873 500 949 500Q1084 500 1246 651V396Z"  />
<glyph unicode="&#x2260;" horiz-adv-x="1368" d="M933 1064H1246V816H835L743 581H1246V333H646L442 -188H231L436 333H122V581H533L625 816H122V1064H722L927 1585H1137L933 1064Z"  />
<glyph unicode="&#x2264;" horiz-adv-x="1368" d="M1246 319L122 786V1010L1246 1477V1211L468 898L1246 585V319ZM122 169H1246V-80H122V169Z"  />
<glyph unicode="&#x2265;" horiz-adv-x="1368" d="M122 1477L1246 1010V786L122 319V585L900 898L122 1211V1477ZM122 169H1246V-80H122V169Z"  />
<glyph unicode="&#x25CA;" horiz-adv-x="1012" d="M548 1422L966 709L548 0H437L46 709L437 1422H548ZM494 1325L154 709L494 94L853 709L494 1325Z"  />
<glyph unicode="&#xFB01;" horiz-adv-x="1280" d="M59 0V223H212V744H59V968H212V1036Q212 1215 334 1315T678 1415Q1024 1415 1096 1168L790 1135Q760 1213 656 1213Q603 1213 572 1193T531 1143T521 1036V968H1096V223H1251V0H693V223H788V744H521V223H621V0H59Z"  />
<glyph unicode="&#xFB02;" horiz-adv-x="1280" d="M1250 223V0H691V223H789V1137Q749 1213 660 1213Q586 1213 553 1173T520 1017V968H664V744H520V223H620V0H60V223H211V744H60V968H211V1040Q211 1225 341 1320T670 1415Q769 1415 862 1391H1096V223H1250Z"  />

</font>
</defs>
</svg>
