<?xml  version="1.0" encoding="UTF-8"?>
<!DOCTYPE svg PUBLIC "-//W3C//DTD SVG 1.0//EN" "http://www.w3.org/TR/2001/REC-SVG-20010904/DTD/svg10.dtd" >
<svg xmlns="http://www.w3.org/2000/svg" >
<metadata>
<version>1.0</version>
<id><![CDATA[Novecento W00 Medium]]></id>
<vendor>Monotype Imaging Inc.</vendor>
<credits>
<name>Fonts.com WebFonts</name>
<URL>http://webfonts.fonts.com</URL>
<role>Home of the Web fonts</role>
</credits>
<license>
<URL>http://webfonts.fonts.com/Legal</URL>
</license>
<copyright></copyright>
<trademark></trademark>
<licensee>
<name></name>
</licensee>
</metadata>
<defs >
<font horiz-adv-x="585" id="06675141-beaf-4f9a-822a-80b2c92aa8d4">
<font-face font-family="" panose-1="0 0 7 0 0 0 0 0 0 0" ascent="844" descent="-156" units-per-em="1000" alphabetic="0">
</font-face>
<missing-glyph horiz-adv-x="664" d="M528 487L399 347L528 208L457 141L332 276L207 142L136 209L265 347L135 486L206 553L332 418L457 553L528 487ZM485 20Q522 20 540 37T559 96V604Q559 646 539 663T475 680H189Q141 680 123 663T105 604V96Q105 54 124 37T179 20H485ZM82 615Q82 655 106 677T167 700H497Q534 700 558 678T582 615V85Q582 43 558 22T497 0H167Q130 0 106 21T82 85V615Z"  />

<glyph unicode="&#xA;" />
<glyph unicode="&#xD;" />
<glyph unicode=" " horiz-adv-x="233" />
<glyph unicode="!" horiz-adv-x="273" d="M82 157H190V0H82V157ZM82 700H190V224H82V700Z"  />
<glyph unicode="&quot;" horiz-adv-x="464" d="M278 700H382V483H278V700ZM82 700H186V483H82V700Z"  />
<glyph unicode="#" horiz-adv-x="832" d="M543 443H363L282 264H460L543 443ZM649 443L568 264H675L630 169H525L448 0H337L415 169H239L162 0H51L129 169H29L74 264H174L257 443H157L202 537H300L376 700H479L405 537H586L662 700H766L692 537H803L758 443H649Z"  />
<glyph unicode="$" horiz-adv-x="561" d="M420 502Q407 559 368 589T276 619Q223 619 191 594T159 528Q159 505 173 488T210 456T263 429T325 403Q360 389 396 371T462 329T511 271T530 191Q530 152 517 118T478 58T416 14T336 -10V-90H231V-9Q148 5 97 58T29 190L132 218Q136 191 149 167T182 124T229 95T290 84Q350 84 383 113T417 186Q417 216 401 236T359 271T300 300T232 328Q201 342 169 358T109 396T65 450T48 524Q48 558 61 588T98 644T156 686T231 710V790H336V709Q407 695 456 647T522 530L420 502Z"  />
<glyph unicode="%" horiz-adv-x="830" d="M653 66Q695 66 719 102T743 195Q743 251 719 287T653 323Q611 323 586 287T561 195Q561 139 586 103T653 66ZM652 -8Q614 -8 584 7T532 49T499 113T487 195Q487 239 498 276T531 340T583 382T652 397Q690 397 720 382T772 340T805 276T817 195Q817 150 806 113T773 49T721 7T652 -8ZM179 377Q221 377 245 413T269 505Q269 562 245 598T179 634Q137 634 112 598T87 505Q87 449 112 413T179 377ZM606 700H679L224 0H150L606 700ZM178 303Q140 303 110 318T58 360T25 424T13 505Q13 549 24 586T57 651T109 693T178 708Q216 708 246 693T298 651T331 587T343 505Q343 461 332 424T299 360T247 318T178 303Z"  />
<glyph unicode="&amp;" horiz-adv-x="669" d="M435 317H291Q222 317 184 287T145 199Q145 146 184 114T285 81Q365 81 400 120T435 239V317ZM656 317H537V235Q537 180 523 134T478 55T399 4T283 -14Q229 -14 184 1T107 44T57 110T39 196Q39 231 51 260T83 310T129 345T183 361V363Q162 366 139 377T97 407T65 454T52 518Q52 558 66 594T109 656T180 698T277 714Q368 714 430 664T512 522L419 496Q402 558 370 589T278 621Q245 621 223 611T187 586T168 551T162 515Q162 470 195 437T296 404H656V317Z"  />
<glyph unicode="&apos;" horiz-adv-x="268" d="M82 700H186V483H82V700Z"  />
<glyph unicode="(" horiz-adv-x="359" d="M331 735Q281 718 247 685T191 603T160 490T150 347Q150 268 159 204T190 91T246 9T331 -42L301 -144Q254 -128 208 -96T124 -6T64 138T41 347Q41 470 64 555T124 698T207 788T301 837L331 735Z"  />
<glyph unicode=")" horiz-adv-x="360" d="M59 837Q106 821 152 789T236 699T296 556T319 347Q319 224 296 138T236 -5T153 -95T59 -144L29 -42Q129 -8 169 90T210 347Q210 504 170 602T29 735L59 837Z"  />
<glyph unicode="*" horiz-adv-x="481" d="M399 551L292 520L361 424L305 382L241 480L177 382L121 423L189 520L82 551L103 618L208 583L206 700H275L273 583L378 618L399 551Z"  />
<glyph unicode="+" horiz-adv-x="651" d="M539 310H373V140H279V310H113V400H278V569H373V400H539V310Z"  />
<glyph unicode="&#x2c;" horiz-adv-x="227" d="M112 -9L100 -8Q83 -6 68 8T53 46Q53 71 70 87T111 104Q136 104 152 86T169 37Q169 14 162 -10T142 -56T114 -98T82 -133H40Q51 -124 61 -110T80 -79T94 -45T100 -14L112 -9Z"  />
<glyph unicode="-" horiz-adv-x="591" d="M508 400V310H82V400H508Z"  />
<glyph unicode="." horiz-adv-x="227" d="M114 -13Q89 -13 73 4T56 46Q56 71 73 87T114 104Q138 104 154 87T171 46Q171 21 154 4T114 -13Z"  />
<glyph unicode="/" horiz-adv-x="456" d="M338 700H442L124 0H14L338 700Z"  />
<glyph unicode="0" horiz-adv-x="658" d="M328 608Q283 608 249 589T193 535T160 453T149 350Q149 294 160 247T193 166T249 112T328 92Q373 92 407 111T463 165T497 247T508 350Q508 406 497 453T464 534T407 588T328 608ZM328 714Q397 714 451 686T542 609T599 494T619 350Q619 273 600 207T543 91T451 14T328 -14Q259 -14 206 14T115 91T59 206T39 350Q39 427 58 493T115 609T205 686T328 714Z"  />
<glyph unicode="1" horiz-adv-x="402" d="M320 700V0H213V419Q213 440 213 461T215 501T216 530T216 542H214Q214 542 209 537T197 523T182 506T165 488L107 430L39 495L245 700H320Z"  />
<glyph unicode="2" horiz-adv-x="553" d="M45 529Q68 612 130 663T287 714Q338 714 380 699T453 655T500 587T517 500Q517 451 502 413T462 344T407 286T347 235Q320 212 292 188T241 144Q214 121 189 100L190 99Q191 99 226 101T318 103H514V0H50V87Q122 154 191 220T333 354Q365 384 386 420T408 499Q408 551 374 584T285 618Q255 618 232 609T192 584T163 548T144 503L45 529Z"  />
<glyph unicode="3" horiz-adv-x="569" d="M52 529Q72 616 134 665T291 714Q347 714 389 699T460 657T503 595T518 521Q518 484 505 456T471 407T426 376T379 364V363Q405 362 432 352T480 321T516 270T530 198Q530 151 512 112T462 45T386 2T291 -14Q243 -14 201 0T125 40T70 101T39 179L136 206Q147 153 186 119T287 84Q349 84 384 118T420 206Q420 260 382 289T282 318H226V405H281Q341 405 375 434T409 514Q409 534 402 552T379 585T341 609T285 618Q228 618 195 587T148 503L52 529Z"  />
<glyph unicode="4" horiz-adv-x="594" d="M375 256V390Q375 418 375 446T377 496T378 533T379 547H378Q378 547 372 539T357 517T335 487T311 454L207 318Q181 284 169 271T157 256L158 255Q158 255 167 255T189 255T220 256T255 256H375ZM558 160H477V0H375V160H39V241L390 700H477V256H558V160Z"  />
<glyph unicode="5" horiz-adv-x="561" d="M175 413Q187 428 216 443T289 458Q339 458 382 441T457 393T507 320T525 226Q525 174 507 130T458 54T383 4T288 -14Q237 -14 196 1T125 42T74 101T45 173L143 199Q148 175 159 154T188 117T229 91T284 81Q313 81 337 92T379 122T407 168T417 227Q417 259 407 286T379 332T337 361T284 372Q255 372 234 365T199 348T176 324T162 298L69 324L131 700H486V597H210L197 523Q186 469 180 443T174 414L175 413Z"  />
<glyph unicode="6" horiz-adv-x="560" d="M289 84Q354 84 393 124T433 229Q433 261 423 287T394 333T348 362T289 373Q223 373 184 333T145 229Q145 163 185 124T289 84ZM204 423L205 421Q221 440 245 452T308 465Q359 465 401 447T472 396T518 319T535 225Q535 172 516 129T464 53T386 4T286 -14Q233 -14 188 3T110 53T58 130T39 229Q39 268 46 301T66 366T98 429T142 494L292 700H407L204 423Z"  />
<glyph unicode="7" horiz-adv-x="519" d="M502 700V632L176 0H62L307 471Q319 495 332 517T356 558T374 587T381 598L380 600Q380 600 370 600T345 599T313 598T279 597H30V700H502Z"  />
<glyph unicode="8" horiz-adv-x="575" d="M141 197Q141 141 181 108T287 74Q354 74 394 108T434 197Q434 252 394 284T287 317Q221 317 181 284T141 197ZM161 524Q161 478 196 449T287 421Q344 421 379 450T414 524Q414 573 379 603T287 633Q231 633 196 603T161 524ZM388 372Q412 368 438 355T485 319T521 266T536 194Q536 148 518 110T466 45T388 2T287 -14Q232 -14 187 1T108 44T57 110T39 194Q39 234 53 265T89 319T137 355T187 372V373Q172 376 152 387T113 417T81 465T68 528Q68 568 84 602T129 661T199 700T287 714Q336 714 376 700T445 660T490 601T506 528Q506 493 493 465T462 418T423 387T388 373V372Z"  />
<glyph unicode="9" horiz-adv-x="564" d="M274 616Q244 616 217 607T171 578T140 532T128 469Q128 434 139 408T171 363T217 336T274 326Q305 326 332 336T378 365T409 410T420 469Q420 506 409 533T378 579T331 607T274 616ZM362 275L361 277Q343 255 316 245T258 234Q202 234 159 252T87 303T42 379T26 473Q26 528 45 572T98 648T177 697T277 714Q329 714 374 698T453 650T506 573T526 469Q526 400 499 334T408 188L264 0H145L362 275Z"  />
<glyph unicode=":" horiz-adv-x="227" d="M114 -13Q89 -13 73 4T56 46Q56 71 73 87T114 104Q138 104 154 87T171 46Q171 21 154 4T114 -13ZM114 291Q89 291 73 308T56 350Q56 375 73 391T114 408Q138 408 154 391T171 350Q171 325 154 308T114 291Z"  />
<glyph unicode=";" horiz-adv-x="242" d="M129 -11L117 -10Q100 -8 85 6T70 44Q70 69 87 85T128 102Q153 102 169 84T186 35Q186 12 179 -12T159 -58T131 -100T99 -135H57Q68 -126 78 -112T97 -81T111 -47T117 -16L129 -11ZM128 291Q103 291 87 308T70 350Q70 375 87 391T128 408Q152 408 168 391T185 350Q185 325 168 308T128 291Z"  />
<glyph unicode="&lt;" horiz-adv-x="651" d="M527 122H398L105 367L398 611H527L240 367L527 122Z"  />
<glyph unicode="=" horiz-adv-x="651" d="M539 293V203H113V293H539ZM539 496V406H113V496H539Z"  />
<glyph unicode="&gt;" horiz-adv-x="651" d="M402 367L115 611H244L537 367L244 122H115L402 367Z"  />
<glyph unicode="?" horiz-adv-x="545" d="M208 157H317V0H208V157ZM208 333Q258 358 293 380T351 423T384 465T395 511Q395 531 389 550T368 584T331 608T275 618Q213 618 179 588T130 503L39 528Q59 617 124 665T281 714Q336 714 378 699T448 656T491 593T506 515Q506 473 491 441T449 382T389 334T317 293V224H208V333Z"  />
<glyph unicode="@" horiz-adv-x="758" d="M463 372Q463 399 456 418T435 449T404 467T367 473Q325 473 296 440T266 345Q267 286 296 255T367 223Q406 223 434 252T463 336V372ZM536 529V270Q536 239 547 220T583 200Q601 200 614 212T636 245T648 293T652 350Q652 416 632 471T575 567T489 629T378 652Q318 652 268 630T182 567T125 472T105 350Q105 284 125 228T181 131T267 67T376 44Q422 44 454 52T506 70T536 89T550 100L601 74Q599 69 585 55T542 26T473 -2T376 -14Q302 -14 240 13T134 89T64 205T39 350Q39 429 64 496T135 611T242 687T378 714Q452 714 514 687T622 612T693 496T719 350Q719 312 711 275T685 209T640 162T576 144Q538 144 510 166T476 230L474 231Q468 214 456 199T428 173T392 155T352 148Q314 148 283 162T230 202T195 264T183 344Q183 389 195 426T230 489T285 531T357 546Q383 546 402 539T434 521T454 500T462 486H463V529H536Z"  />
<glyph unicode="A" horiz-adv-x="666" d="M445 256L362 485Q356 502 351 518T343 547T337 568T334 576H332Q332 576 330 568T323 548T314 519T303 485L221 256H445ZM480 159H186L129 0H14L278 700H387L652 0H537L480 159Z"  />
<glyph unicode="B" horiz-adv-x="603" d="M330 93Q386 93 421 125T457 211Q457 238 447 259T419 297T378 321T327 330H191V93H330ZM312 416Q361 416 391 443T422 512Q422 555 392 581T311 607H191V416H312ZM327 700Q372 700 409 687T473 651T514 595T529 524Q529 495 519 471T494 429T460 399T424 383V382Q447 378 472 365T519 329T555 276T569 208Q569 161 554 123T509 58T436 15T335 0H82V700H327Z"  />
<glyph unicode="C" horiz-adv-x="685" d="M541 501Q514 554 467 581T363 608Q315 608 276 590T210 539T167 458T151 350Q151 290 167 242T211 161T278 111T364 93Q427 93 477 125T553 218L660 190Q622 95 544 41T363 -14Q293 -14 234 12T131 85T64 200T39 350Q39 433 63 500T131 615T234 688T363 714Q460 714 534 666T649 530L541 501Z"  />
<glyph unicode="D" horiz-adv-x="716" d="M347 102Q394 102 434 118T503 166T549 243T566 347Q566 407 549 453T502 532T431 581T342 598H191V102H347ZM337 700Q411 700 473 675T581 604T651 492T677 347Q677 267 652 203T583 94T477 25T343 0H82V700H337Z"  />
<glyph unicode="E" d="M527 103V0H82V700H521V597H191V414H450V317H191V103H527Z"  />
<glyph unicode="F" horiz-adv-x="544" d="M191 597V393H443V294H191V0H82V700H514V597H191Z"  />
<glyph unicode="G" horiz-adv-x="715" d="M567 84Q556 69 537 52T491 21T432 -3T361 -13Q292 -13 233 13T131 86T64 200T39 350Q39 433 63 500T131 615T234 688T363 714Q463 712 536 664T649 530L541 501Q514 554 467 581T363 608Q315 608 276 590T209 539T166 458T150 350Q150 289 166 241T212 160T281 110T370 92Q412 92 445 103T502 133T543 173T567 218V287H386V376H660V-1H567Q567 49 567 66T568 84H567Z"  />
<glyph unicode="H" horiz-adv-x="685" d="M603 700V0H494V306H191V0H82V700H191V411H494V700H603Z"  />
<glyph unicode="I" horiz-adv-x="273" d="M82 0V700H191V0H82Z"  />
<glyph unicode="J" horiz-adv-x="614" d="M546 700V277Q546 137 473 62T271 -14Q223 -14 182 -1T107 35T50 91T14 164L120 192Q137 142 176 115T271 88Q352 88 394 136T437 270V700H546Z"  />
<glyph unicode="K" horiz-adv-x="655" d="M503 0L272 335L191 248V0H82V700H191V537Q191 461 190 422T189 382H190Q190 382 198 390T219 413T249 447T287 489L484 700H615L343 411L630 0H503Z"  />
<glyph unicode="L" horiz-adv-x="537" d="M517 103V0H82V700H191V103H517Z"  />
<glyph unicode="M" horiz-adv-x="776" d="M693 700V0H588V266Q588 318 589 364T591 444T594 498T595 518H593Q593 518 587 507T573 478T555 443T538 409L415 176H360L237 409Q230 424 221 442T203 478T188 506T182 518H181Q181 518 182 499T184 445T187 364T188 266V0H82V700H184L330 428Q348 395 359 373T376 338T384 318T387 312H388Q388 312 390 318T399 337T416 373T446 428L592 700H693Z"  />
<glyph unicode="N" horiz-adv-x="705" d="M623 700V0H524L291 354Q271 382 253 410T220 461T196 498T187 512H185Q185 512 185 496T187 451T189 383T190 297V0H82V700H181L418 342Q434 318 452 292T484 243T508 207T518 192H520Q520 192 520 209T518 255T516 322T515 402V700H623Z"  />
<glyph unicode="O" horiz-adv-x="728" d="M151 350Q151 290 166 242T210 161T277 110T363 92Q411 92 450 110T518 161T561 242T577 350Q577 411 562 459T518 540T450 590T363 608Q316 608 277 591T210 540T167 458T151 350ZM39 350Q39 433 63 500T131 615T234 688T363 714Q433 714 493 688T596 615T664 500T689 350Q689 267 665 200T597 85T493 12T363 -14Q293 -14 234 12T131 85T64 200T39 350Z"  />
<glyph unicode="P" horiz-adv-x="570" d="M292 345Q360 345 396 378T433 471Q433 533 395 565T292 598H191V345H292ZM293 700Q351 700 398 684T477 639T527 567T545 471Q545 418 528 376T477 304T398 259T293 243H191V0H82V700H293Z"  />
<glyph unicode="Q" horiz-adv-x="728" d="M363 92Q411 92 450 110T518 161T561 242T577 350Q577 411 562 459T518 540T450 590T363 608Q316 608 277 591T210 540T167 458T151 350Q151 290 166 242T210 161T277 110T363 92ZM309 -10Q249 -1 200 29T115 105T59 214T39 350Q39 433 63 500T131 615T234 688T363 714Q433 714 493 688T596 615T664 500T689 350Q689 275 669 213T613 104T526 28T416 -10V-132H309V-10Z"  />
<glyph unicode="R" horiz-adv-x="606" d="M302 347Q367 347 401 383T435 473Q435 528 401 563T302 598H191V347H302ZM449 0L314 252Q309 251 304 251T293 251H191V0H82V700H293Q351 700 398 684T478 639T529 567T547 473Q547 400 513 350T417 273L571 0H449Z"  />
<glyph unicode="S" horiz-adv-x="561" d="M420 502Q407 559 368 589T276 619Q223 619 191 594T159 528Q159 505 173 488T210 456T263 429T325 403Q360 389 396 371T462 329T511 271T530 191Q530 147 513 110T463 45T386 2T287 -14Q233 -14 190 1T115 43T61 107T29 190L132 218Q136 191 149 167T182 124T229 95T290 84Q350 84 383 113T417 186Q417 216 401 236T359 271T300 300T232 328Q201 342 169 358T109 396T65 450T48 524Q48 563 65 597T112 658T186 699T281 714Q327 714 366 701T437 663T490 605T522 530L420 502Z"  />
<glyph unicode="T" horiz-adv-x="557" d="M540 700V597H332V0H223V597H17V700H540Z"  />
<glyph unicode="U" horiz-adv-x="677" d="M609 700V277Q609 135 538 61T338 -14Q210 -14 139 60T68 277V700H176V276Q176 88 338 88Q500 88 500 276V700H609Z"  />
<glyph unicode="V" horiz-adv-x="663" d="M649 700L391 0H272L14 700H130L295 237Q303 213 309 192T320 154T328 127T331 117H332Q332 117 335 127T342 153T353 191T368 237L532 700H649Z"  />
<glyph unicode="W" horiz-adv-x="939" d="M913 700L710 0H608L503 356Q483 421 477 454T470 488H469Q468 488 462 454T436 356L331 0H228L26 700H140L257 275Q270 227 275 193T282 159H284Q285 159 292 193T314 275L420 621H519L625 275Q640 227 647 193T655 159H656Q657 159 663 193T681 275L798 700H913Z"  />
<glyph unicode="X" horiz-adv-x="629" d="M314 271Q314 271 309 263T298 242T284 217T270 194L143 0H14L250 363L32 700H160L277 515Q281 508 287 497T299 475T309 456T314 448H315Q315 448 319 456T330 474T342 496T352 515L469 700H598L380 363L615 0H487L359 194Q353 204 346 217T332 242T320 262T315 271H314Z"  />
<glyph unicode="Y" horiz-adv-x="631" d="M617 700L369 322V0H262V322L14 700H133L277 484Q292 458 303 439T315 419H317Q318 419 329 438T355 484L498 700H617Z"  />
<glyph unicode="Z" horiz-adv-x="638" d="M582 599L245 162Q225 136 209 119T193 101L194 100Q195 100 221 101T290 103H582V0H56V101L401 542Q408 551 417 561T434 579T447 593T453 599L452 600Q452 600 444 600T423 599T392 598T355 597H66V700H582V599Z"  />
<glyph unicode="[" horiz-adv-x="336" d="M191 -49H313V-151H82V856H313V754H191V-49Z"  />
<glyph unicode="\" horiz-adv-x="456" d="M442 0H331L14 700H117L442 0Z"  />
<glyph unicode="]" horiz-adv-x="342" d="M151 754H29V856H260V-151H29V-49H151V754Z"  />
<glyph unicode="^" horiz-adv-x="601" d="M469 432L301 618L132 432L82 477L301 714L519 477L469 432Z"  />
<glyph unicode="_" horiz-adv-x="723" d="M640 0V-87H82V0H640Z"  />
<glyph unicode="`" horiz-adv-x="311" d="M25 839L66 914L271 795L236 735L25 839Z"  />
<glyph unicode="a" horiz-adv-x="666" d="M445 256L362 485Q356 502 351 518T343 547T337 568T334 576H332Q332 576 330 568T323 548T314 519T303 485L221 256H445ZM480 159H186L129 0H14L278 700H387L652 0H537L480 159Z"  />
<glyph unicode="b" horiz-adv-x="603" d="M330 93Q386 93 421 125T457 211Q457 238 447 259T419 297T378 321T327 330H191V93H330ZM312 416Q361 416 391 443T422 512Q422 555 392 581T311 607H191V416H312ZM327 700Q372 700 409 687T473 651T514 595T529 524Q529 495 519 471T494 429T460 399T424 383V382Q447 378 472 365T519 329T555 276T569 208Q569 161 554 123T509 58T436 15T335 0H82V700H327Z"  />
<glyph unicode="c" horiz-adv-x="685" d="M541 501Q514 554 467 581T363 608Q315 608 276 590T210 539T167 458T151 350Q151 290 167 242T211 161T278 111T364 93Q427 93 477 125T553 218L660 190Q622 95 544 41T363 -14Q293 -14 234 12T131 85T64 200T39 350Q39 433 63 500T131 615T234 688T363 714Q460 714 534 666T649 530L541 501Z"  />
<glyph unicode="d" horiz-adv-x="716" d="M347 102Q394 102 434 118T503 166T549 243T566 347Q566 407 549 453T502 532T431 581T342 598H191V102H347ZM337 700Q411 700 473 675T581 604T651 492T677 347Q677 267 652 203T583 94T477 25T343 0H82V700H337Z"  />
<glyph unicode="e" d="M527 103V0H82V700H521V597H191V414H450V317H191V103H527Z"  />
<glyph unicode="f" horiz-adv-x="544" d="M191 597V393H443V294H191V0H82V700H514V597H191Z"  />
<glyph unicode="g" horiz-adv-x="715" d="M567 84Q556 69 537 52T491 21T432 -3T361 -13Q292 -13 233 13T131 86T64 200T39 350Q39 433 63 500T131 615T234 688T363 714Q463 712 536 664T649 530L541 501Q514 554 467 581T363 608Q315 608 276 590T209 539T166 458T150 350Q150 289 166 241T212 160T281 110T370 92Q412 92 445 103T502 133T543 173T567 218V287H386V376H660V-1H567Q567 49 567 66T568 84H567Z"  />
<glyph unicode="h" horiz-adv-x="685" d="M603 700V0H494V306H191V0H82V700H191V411H494V700H603Z"  />
<glyph unicode="i" horiz-adv-x="273" d="M82 0V700H191V0H82Z"  />
<glyph unicode="j" horiz-adv-x="614" d="M546 700V277Q546 137 473 62T271 -14Q223 -14 182 -1T107 35T50 91T14 164L120 192Q137 142 176 115T271 88Q352 88 394 136T437 270V700H546Z"  />
<glyph unicode="k" horiz-adv-x="655" d="M503 0L272 335L191 248V0H82V700H191V537Q191 461 190 422T189 382H190Q190 382 198 390T219 413T249 447T287 489L484 700H615L343 411L630 0H503Z"  />
<glyph unicode="l" horiz-adv-x="537" d="M517 103V0H82V700H191V103H517Z"  />
<glyph unicode="m" horiz-adv-x="776" d="M693 700V0H588V266Q588 318 589 364T591 444T594 498T595 518H593Q593 518 587 507T573 478T555 443T538 409L415 176H360L237 409Q230 424 221 442T203 478T188 506T182 518H181Q181 518 182 499T184 445T187 364T188 266V0H82V700H184L330 428Q348 395 359 373T376 338T384 318T387 312H388Q388 312 390 318T399 337T416 373T446 428L592 700H693Z"  />
<glyph unicode="n" horiz-adv-x="705" d="M623 700V0H524L291 354Q271 382 253 410T220 461T196 498T187 512H185Q185 512 185 496T187 451T189 383T190 297V0H82V700H181L418 342Q434 318 452 292T484 243T508 207T518 192H520Q520 192 520 209T518 255T516 322T515 402V700H623Z"  />
<glyph unicode="o" horiz-adv-x="728" d="M151 350Q151 290 166 242T210 161T277 110T363 92Q411 92 450 110T518 161T561 242T577 350Q577 411 562 459T518 540T450 590T363 608Q316 608 277 591T210 540T167 458T151 350ZM39 350Q39 433 63 500T131 615T234 688T363 714Q433 714 493 688T596 615T664 500T689 350Q689 267 665 200T597 85T493 12T363 -14Q293 -14 234 12T131 85T64 200T39 350Z"  />
<glyph unicode="p" horiz-adv-x="570" d="M292 345Q360 345 396 378T433 471Q433 533 395 565T292 598H191V345H292ZM293 700Q351 700 398 684T477 639T527 567T545 471Q545 418 528 376T477 304T398 259T293 243H191V0H82V700H293Z"  />
<glyph unicode="q" horiz-adv-x="728" d="M363 92Q411 92 450 110T518 161T561 242T577 350Q577 411 562 459T518 540T450 590T363 608Q316 608 277 591T210 540T167 458T151 350Q151 290 166 242T210 161T277 110T363 92ZM309 -10Q249 -1 200 29T115 105T59 214T39 350Q39 433 63 500T131 615T234 688T363 714Q433 714 493 688T596 615T664 500T689 350Q689 275 669 213T613 104T526 28T416 -10V-132H309V-10Z"  />
<glyph unicode="r" horiz-adv-x="606" d="M302 347Q367 347 401 383T435 473Q435 528 401 563T302 598H191V347H302ZM449 0L314 252Q309 251 304 251T293 251H191V0H82V700H293Q351 700 398 684T478 639T529 567T547 473Q547 400 513 350T417 273L571 0H449Z"  />
<glyph unicode="s" horiz-adv-x="561" d="M420 502Q407 559 368 589T276 619Q223 619 191 594T159 528Q159 505 173 488T210 456T263 429T325 403Q360 389 396 371T462 329T511 271T530 191Q530 147 513 110T463 45T386 2T287 -14Q233 -14 190 1T115 43T61 107T29 190L132 218Q136 191 149 167T182 124T229 95T290 84Q350 84 383 113T417 186Q417 216 401 236T359 271T300 300T232 328Q201 342 169 358T109 396T65 450T48 524Q48 563 65 597T112 658T186 699T281 714Q327 714 366 701T437 663T490 605T522 530L420 502Z"  />
<glyph unicode="t" horiz-adv-x="557" d="M540 700V597H332V0H223V597H17V700H540Z"  />
<glyph unicode="u" horiz-adv-x="677" d="M609 700V277Q609 135 538 61T338 -14Q210 -14 139 60T68 277V700H176V276Q176 88 338 88Q500 88 500 276V700H609Z"  />
<glyph unicode="v" horiz-adv-x="663" d="M649 700L391 0H272L14 700H130L295 237Q303 213 309 192T320 154T328 127T331 117H332Q332 117 335 127T342 153T353 191T368 237L532 700H649Z"  />
<glyph unicode="w" horiz-adv-x="939" d="M913 700L710 0H608L503 356Q483 421 477 454T470 488H469Q468 488 462 454T436 356L331 0H228L26 700H140L257 275Q270 227 275 193T282 159H284Q285 159 292 193T314 275L420 621H519L625 275Q640 227 647 193T655 159H656Q657 159 663 193T681 275L798 700H913Z"  />
<glyph unicode="x" horiz-adv-x="629" d="M314 271Q314 271 309 263T298 242T284 217T270 194L143 0H14L250 363L32 700H160L277 515Q281 508 287 497T299 475T309 456T314 448H315Q315 448 319 456T330 474T342 496T352 515L469 700H598L380 363L615 0H487L359 194Q353 204 346 217T332 242T320 262T315 271H314Z"  />
<glyph unicode="y" horiz-adv-x="631" d="M617 700L369 322V0H262V322L14 700H133L277 484Q292 458 303 439T315 419H317Q318 419 329 438T355 484L498 700H617Z"  />
<glyph unicode="z" horiz-adv-x="638" d="M582 599L245 162Q225 136 209 119T193 101L194 100Q195 100 221 101T290 103H582V0H56V101L401 542Q408 551 417 561T434 579T447 593T453 599L452 600Q452 600 444 600T423 599T392 598T355 597H66V700H582V599Z"  />
<glyph unicode="{" horiz-adv-x="391" d="M255 512Q255 462 248 432T231 384T213 360T201 352Q204 351 212 345T230 321T247 272T255 191V93Q255 44 265 14T293 -33T332 -56T377 -62V-164Q265 -164 206 -100T147 83V198Q147 249 137 278T114 325Q100 344 82 352Q100 360 114 379Q126 396 136 425T147 506V621Q147 739 206 803T377 868V766Q354 766 332 760T293 738T266 691T255 611V512Z"  />
<glyph unicode="|" horiz-adv-x="252" d="M82 -74V775H170V-74H82Z"  />
<glyph unicode="}" horiz-adv-x="394" d="M139 611Q139 660 129 690T101 737T62 760T17 766V868Q129 868 188 804T247 621V506Q247 455 257 426T279 379Q293 360 312 352Q293 344 279 325Q267 308 257 279T247 198V83Q247 -35 188 -99T17 -164V-62Q40 -62 62 -56T101 -34T128 13T139 93V191Q139 240 146 271T163 320T181 344T193 352Q190 353 182 359T164 383T147 431T139 512V611Z"  />
<glyph unicode="~" horiz-adv-x="651" d="M568 392Q564 361 550 339T517 302T474 280T427 273Q397 273 372 284T325 307T283 330T244 341Q209 342 194 324T177 282L90 306Q94 337 107 359T140 395T183 416T230 423Q261 423 286 413T332 390T373 366T413 355Q448 355 462 374T479 415L568 392Z"  />
<glyph unicode="&#xA0;" horiz-adv-x="233" />
<glyph unicode="&#xA1;" horiz-adv-x="273" d="M191 476V0H82V476H191ZM191 700V543H82V700H191Z"  />
<glyph unicode="&#xA2;" horiz-adv-x="520" d="M495 239Q474 176 427 136T317 85V-14H231V86Q189 93 154 115T93 171T53 250T39 348Q39 401 53 446T92 524T153 580T231 610V714H317V610Q376 600 420 564T488 470L396 446Q359 522 275 522Q212 522 175 478T137 348Q137 263 175 219T276 174Q321 174 353 196T403 265L495 239Z"  />
<glyph unicode="&#xA3;" horiz-adv-x="615" d="M573 103V0H82V103Q110 108 125 121T148 155T156 202T154 263L150 306H88V393H142L133 490Q128 538 142 578T184 649T251 696T335 714Q369 715 405 706T472 674T529 616T568 528L475 502Q458 559 425 589T341 617Q290 615 263 580T241 483L249 393H448V306H257L261 266Q268 195 255 155T213 99L214 98Q214 98 228 99T268 100T326 102T397 103H573Z"  />
<glyph unicode="&#xA4;" horiz-adv-x="624" d="M312 510Q280 510 252 498T204 463T173 410T161 342Q161 304 172 273T204 220T252 185T312 172Q344 172 371 184T419 219T451 273T463 342Q463 379 452 410T420 463T372 497T312 510ZM523 624L578 569L511 501Q535 469 548 428T561 340Q561 295 549 255T513 181L582 112L527 57L459 126Q428 101 391 87T311 73Q269 73 233 87T165 125L97 57L42 112L110 181Q88 214 76 254T63 340Q63 386 76 427T113 502L45 569L100 624L168 557Q198 580 234 593T311 606Q352 606 388 594T456 558L523 624Z"  />
<glyph unicode="&#xA5;" horiz-adv-x="631" d="M447 441H564V367H399L374 330H564V256H369V0H262V256H71V330H257L232 367H71V441H184L14 700H133L277 484Q292 458 303 439T315 419H317Q318 419 329 438T355 484L498 700H617L447 441Z"  />
<glyph unicode="&#xA6;" horiz-adv-x="252" d="M170 216V-74H82V216H170ZM170 775V495H82V775H170Z"  />
<glyph unicode="&#xA7;" horiz-adv-x="492" d="M131 373Q131 355 144 343T178 321T227 303T282 286Q288 284 292 283Q324 289 345 306T366 351Q366 373 353 387T319 411T272 428T217 445Q202 442 187 437T159 422T139 401T131 373ZM362 566Q352 604 321 624T245 645Q202 645 176 629T149 587Q149 569 160 558T191 537T235 521T286 504Q316 494 346 482T401 452T441 412T457 356Q457 317 433 292T365 253Q405 233 432 205T460 131Q460 99 445 73T403 27T336 -4T250 -15Q156 -15 101 26T29 131L117 155Q125 115 159 87T252 57Q303 57 332 77T361 127Q361 148 348 163T312 189T262 209T203 229Q176 239 148 250T96 277T57 315T42 369Q42 405 67 432T137 476Q102 493 78 517T54 584Q54 611 68 634T108 676T169 704T249 715Q287 715 320 706T379 680T423 640T450 589L362 566Z"  />
<glyph unicode="&#xA8;" horiz-adv-x="404" d="M307 766Q284 766 268 782T252 822Q252 846 268 862T307 878Q330 878 345 862T361 822Q361 798 346 782T307 766ZM80 766Q57 766 41 782T25 822Q25 846 41 862T80 878Q103 878 118 862T134 822Q134 798 119 782T80 766Z"  />
<glyph unicode="&#xA9;" horiz-adv-x="758" d="M526 279Q511 231 471 203T380 174Q346 174 318 186T268 222T236 277T224 350Q224 389 235 421T268 477T317 512T380 525Q428 525 466 500T522 430L460 413Q448 438 427 450T380 463Q339 463 315 434T290 350Q290 295 314 266T381 236Q410 236 431 251T464 296L526 279ZM379 640Q322 640 275 619T193 560T139 469T119 350Q119 286 138 233T192 142T274 83T379 62Q435 62 483 83T565 142T619 233T639 350Q639 415 620 468T566 560T483 619T379 640ZM379 714Q451 714 513 687T620 612T692 497T719 350Q719 270 693 203T621 88T513 13T379 -14Q307 -14 245 13T137 88T65 203T39 350Q39 430 65 497T137 612T245 687T379 714Z"  />
<glyph unicode="&#xAA;" horiz-adv-x="337" d="M317 311V241H20V311H317ZM130 497H206L186 561Q178 590 174 613T169 637H168Q167 637 163 614T150 561L130 497ZM91 375H21L137 708H199L315 375H244L222 444H113L91 375Z"  />
<glyph unicode="&#xAB;" horiz-adv-x="710" d="M295 585L358 527L196 352L359 176L295 119L83 352L295 585ZM564 585L627 527L465 352L628 176L564 119L352 352L564 585Z"  />
<glyph unicode="&#xAD;" horiz-adv-x="586" d="M508 400V310H82V400H508Z"  />
<glyph unicode="&#xAE;" horiz-adv-x="758" d="M384 356Q444 356 444 411Q444 437 429 452T384 467H333V356H384ZM379 525Q438 525 472 495T507 413Q507 377 491 353T444 315L523 175H455L387 303H379H333V175H270V525H379ZM379 62Q435 62 483 83T565 142T619 233T639 350Q639 415 620 468T566 560T483 619T379 640Q322 640 275 619T193 560T139 469T119 350Q119 286 138 233T192 142T274 83T379 62ZM379 714Q451 714 513 687T620 612T692 497T719 350Q719 270 693 203T621 88T513 13T379 -14Q307 -14 245 13T137 88T65 203T39 350Q39 430 65 497T137 612T245 687T379 714Z"  />
<glyph unicode="&#xAF;" horiz-adv-x="349" d="M318 768V683H13V768H318Z"  />
<glyph unicode="&#xB0;" horiz-adv-x="298" d="M149 647Q172 647 188 664T205 704Q205 729 189 745T149 762Q126 762 110 746T94 704Q94 681 110 664T149 647ZM149 582Q124 582 102 591T64 617T38 656T28 704Q28 729 37 751T63 790T102 816T149 826Q174 826 196 817T234 791T260 752T270 704Q270 679 261 657T235 618T196 592T149 582Z"  />
<glyph unicode="&#xB1;" horiz-adv-x="651" d="M113 81H539V-9H113V81ZM539 400V310H373V174H279V310H113V400H278V569H373V400H539Z"  />
<glyph unicode="&#xB2;" horiz-adv-x="311" d="M109 530Q112 531 139 534T206 537H287V473H22V522L157 644Q182 667 200 691T219 744Q219 770 201 786T157 803Q122 803 107 784T83 737L18 753Q23 776 35 797T64 835T105 860T157 870Q186 870 210 861T252 834T280 794T290 744Q290 705 270 675T224 621Q191 592 159 565Q138 549 124 541T108 531L109 530Z"  />
<glyph unicode="&#xB3;" horiz-adv-x="316" d="M24 761Q34 812 70 841T161 870Q221 870 255 840T290 761Q290 741 283 725T264 698T238 681T211 674V673Q226 672 241 667T268 650T288 623T296 585Q296 532 259 499T161 465Q132 465 108 474T65 498T34 534T18 579L82 595Q85 565 105 547T161 528Q193 528 210 545T228 588Q228 615 209 630T157 646H123V700H157Q186 700 204 716T222 757Q222 777 206 792T159 808Q101 808 85 744L24 761Z"  />
<glyph unicode="&#xB4;" horiz-adv-x="311" d="M271 839L60 735L25 795L230 914L271 839Z"  />
<glyph unicode="&#xB6;" horiz-adv-x="667" d="M585 700V0H476V596H397V0H294V319H258Q155 319 97 369T39 509Q39 600 97 650T258 700H585Z"  />
<glyph unicode="&#xB7;" horiz-adv-x="227" d="M114 291Q89 291 73 308T56 350Q56 375 73 391T114 408Q138 408 154 391T171 350Q171 325 154 308T114 291Z"  />
<glyph unicode="&#xB8;" horiz-adv-x="259" d="M116 -52Q158 -51 188 -77T218 -149Q218 -199 187 -223T111 -247H26L50 -187H111Q132 -187 143 -177T155 -149Q155 -132 143 -121T111 -110H34L73 0H136L116 -52Z"  />
<glyph unicode="&#xB9;" horiz-adv-x="224" d="M187 862V473H116V686Q116 699 117 713T119 741T121 762T122 771H121Q119 771 112 760T91 736L59 705L13 746L137 862H187Z"  />
<glyph unicode="&#xBA;" horiz-adv-x="335" d="M316 311V241H20V311H316ZM78 540Q78 489 103 462T167 434Q207 434 232 462T257 540Q257 591 232 619T167 647Q128 647 103 619T78 540ZM10 540Q10 579 22 611T55 665T105 700T167 713Q201 713 230 701T280 666T313 611T325 540Q325 501 313 469T280 415T229 380T167 367Q134 367 105 379T55 415T22 469T10 540Z"  />
<glyph unicode="&#xBB;" horiz-adv-x="710" d="M628 352L415 119L351 176L514 352L352 527L415 585L628 352ZM358 352L146 119L82 176L245 352L83 527L146 585L358 352Z"  />
<glyph unicode="&#xBC;" horiz-adv-x="662" d="M530 145V217Q530 244 532 267T534 292H533Q532 292 520 273T494 235L450 181Q439 166 429 156T418 144L419 143Q420 143 436 144T474 145H530ZM640 84H595V0H530V84H346V134L539 389H595V146H640V84ZM588 700L133 0H60L515 700H588ZM121 609Q119 609 112 598T91 574L59 543L13 584L137 700H187V311H116V524Q116 537 117 551T119 579T121 600T122 609H121Z"  />
<glyph unicode="&#xBD;" horiz-adv-x="698" d="M496 57Q499 58 526 61T593 64H674V0H409V49L544 171Q569 194 587 218T606 271Q606 297 588 313T544 330Q509 330 494 311T470 264L405 280Q410 303 422 324T451 362T492 387T544 397Q573 397 597 388T639 361T667 321T677 271Q677 232 657 202T611 148Q578 119 546 92Q525 76 511 68T495 58L496 57ZM515 700H588L133 0H60L515 700ZM187 700V311H116V524Q116 537 117 551T119 579T121 600T122 609H121Q119 609 112 598T91 574L59 543L13 584L137 700H187Z"  />
<glyph unicode="&#xBE;" horiz-adv-x="725" d="M594 145V217Q594 244 596 267T598 292H597Q596 292 584 273T558 235L514 181Q503 166 493 156T482 144L483 143Q484 143 500 144T538 145H594ZM704 84H659V0H594V84H410V134L603 389H659V146H704V84ZM652 700L197 0H124L579 700H652ZM211 511Q226 510 241 505T268 488T288 461T296 423Q296 370 259 337T161 303Q132 303 108 312T65 336T34 372T18 417L82 433Q85 403 105 385T161 366Q193 366 210 383T228 426Q228 453 209 468T157 484H123V538H157Q186 538 204 554T222 595Q222 615 206 630T159 646Q101 646 85 582L24 599Q34 650 70 679T161 708Q221 708 255 678T290 599Q290 579 283 563T264 536T238 519T211 512V511Z"  />
<glyph unicode="&#xBF;" horiz-adv-x="545" d="M337 367Q287 341 252 320T194 277T161 235T150 189Q150 169 156 150T177 116T214 92T270 82Q332 82 366 112T415 197L506 172Q486 83 421 35T264 -14Q209 -14 167 1T97 44T54 107T39 185Q39 227 54 259T96 318T156 366T228 407V476H337V367ZM337 543H228V700H337V543Z"  />
<glyph unicode="&#xC0;" horiz-adv-x="666" d="M445 256L362 485Q356 502 351 518T343 547T337 568T334 576H332Q332 576 330 568T323 548T314 519T303 485L221 256H445ZM480 159H186L129 0H14L278 700H387L652 0H537L480 159ZM379 735L168 839L209 914L414 795L379 735Z"  />
<glyph unicode="&#xC1;" horiz-adv-x="666" d="M445 256L362 485Q356 502 351 518T343 547T337 568T334 576H332Q332 576 330 568T323 548T314 519T303 485L221 256H445ZM480 159H186L129 0H14L278 700H387L652 0H537L480 159ZM268 735L233 795L438 914L479 839L268 735Z"  />
<glyph unicode="&#xC2;" horiz-adv-x="666" d="M445 256L362 485Q356 502 351 518T343 547T337 568T334 576H332Q332 576 330 568T323 548T314 519T303 485L221 256H445ZM480 159H186L129 0H14L278 700H387L652 0H537L480 159ZM221 739L167 793L332 941L496 793L443 739L332 837L221 739Z"  />
<glyph unicode="&#xC3;" horiz-adv-x="666" d="M445 256L362 485Q356 502 351 518T343 547T337 568T334 576H332Q332 576 330 568T323 548T314 519T303 485L221 256H445ZM480 159H186L129 0H14L278 700H387L652 0H537L480 159ZM526 872Q526 846 518 825T493 787T455 762T406 753Q382 753 364 762T331 781T301 801T271 810Q250 810 238 798T226 765H142Q142 790 151 812T176 850T214 875T262 884Q287 884 305 875T339 856T368 836T397 827Q418 827 430 839T442 872H526Z"  />
<glyph unicode="&#xC4;" horiz-adv-x="666" d="M445 256L362 485Q356 502 351 518T343 547T337 568T334 576H332Q332 576 330 568T323 548T314 519T303 485L221 256H445ZM480 159H186L129 0H14L278 700H387L652 0H537L480 159ZM445 766Q422 766 406 782T390 822Q390 846 406 862T445 878Q468 878 483 862T499 822Q499 798 484 782T445 766ZM218 766Q195 766 179 782T163 822Q163 846 179 862T218 878Q241 878 256 862T272 822Q272 798 257 782T218 766Z"  />
<glyph unicode="&#xC5;" horiz-adv-x="666" d="M445 256L362 485Q356 502 351 518T343 547T337 568T334 576H332Q332 576 330 568T323 548T314 519T303 485L221 256H445ZM333 865Q310 865 294 849T278 807Q278 784 294 767T333 750Q356 750 372 767T389 807Q389 832 373 848T333 865ZM480 159H186L129 0H14L277 698Q248 714 230 742T212 807Q212 832 221 854T247 892T286 918T333 928Q358 928 380 919T418 893T444 854T454 807Q454 771 436 742T388 698L652 0H537L480 159Z"  />
<glyph unicode="&#xC6;" horiz-adv-x="920" d="M419 597H350Q350 597 345 584T333 550T317 504T300 456L225 255H419V597ZM862 103V0H419V159H189L129 0H14L286 700H856V597H525V414H785V317H525V103H862Z"  />
<glyph unicode="&#xC7;" horiz-adv-x="685" d="M660 190Q625 99 553 46T386 -13L371 -52Q392 -52 410 -58T442 -77T464 -108T472 -149Q472 -199 441 -223T366 -247H281L305 -187H365Q386 -187 397 -177T409 -149Q409 -132 397 -121T365 -110H289L323 -12Q261 -5 209 24T119 100T60 210T39 350Q39 433 63 500T131 615T234 688T363 714Q460 714 534 666T649 530L541 501Q514 554 467 581T363 608Q315 608 276 590T210 539T167 458T151 350Q151 290 167 242T211 161T278 111T364 93Q427 93 477 125T553 218L660 190Z"  />
<glyph unicode="&#xC8;" d="M527 103V0H82V700H521V597H191V414H450V317H191V103H527ZM356 735L145 839L186 914L391 795L356 735Z"  />
<glyph unicode="&#xC9;" d="M527 103V0H82V700H521V597H191V414H450V317H191V103H527ZM245 735L210 795L415 914L456 839L245 735Z"  />
<glyph unicode="&#xCA;" d="M527 103V0H82V700H521V597H191V414H450V317H191V103H527ZM198 739L144 793L309 941L473 793L420 739L309 837L198 739Z"  />
<glyph unicode="&#xCB;" d="M527 103V0H82V700H521V597H191V414H450V317H191V103H527ZM422 766Q399 766 383 782T367 822Q367 846 383 862T422 878Q445 878 460 862T476 822Q476 798 461 782T422 766ZM195 766Q172 766 156 782T140 822Q140 846 156 862T195 878Q218 878 233 862T249 822Q249 798 234 782T195 766Z"  />
<glyph unicode="&#xCC;" horiz-adv-x="273" d="M82 0V700H191V0H82ZM-29 839L12 914L217 795L182 735L-29 839Z"  />
<glyph unicode="&#xCD;" horiz-adv-x="273" d="M82 0V700H191V0H82ZM282 839L71 735L36 795L241 914L282 839Z"  />
<glyph unicode="&#xCE;" horiz-adv-x="273" d="M82 0V700H191V0H82ZM135 941L299 793L246 739L135 837L24 739L-30 793L135 941Z"  />
<glyph unicode="&#xCF;" horiz-adv-x="273" d="M82 0V700H191V0H82ZM248 766Q225 766 209 782T193 822Q193 846 209 862T248 878Q271 878 286 862T302 822Q302 798 287 782T248 766ZM21 766Q-2 766 -18 782T-34 822Q-34 846 -18 862T21 878Q44 878 59 862T75 822Q75 798 60 782T21 766Z"  />
<glyph unicode="&#xD0;" horiz-adv-x="724" d="M355 102Q402 102 442 118T511 166T557 243T574 347Q574 407 557 453T510 532T439 581T350 598H199V405H337V306H199V102H355ZM345 700Q419 700 481 675T589 604T659 492T685 347Q685 267 660 203T591 94T485 25T351 0H90V306H39V405H90V700H345Z"  />
<glyph unicode="&#xD1;" horiz-adv-x="705" d="M623 700V0H524L291 354Q271 382 253 410T220 461T196 498T187 512H185Q185 512 185 496T187 451T189 383T190 297V0H82V700H181L418 342Q434 318 452 292T484 243T508 207T518 192H520Q520 192 520 209T518 255T516 322T515 402V700H623ZM546 872Q546 846 538 825T513 787T475 762T426 753Q402 753 384 762T351 781T321 801T291 810Q270 810 258 798T246 765H162Q162 790 171 812T196 850T234 875T282 884Q307 884 325 875T359 856T388 836T417 827Q438 827 450 839T462 872H546Z"  />
<glyph unicode="&#xD2;" horiz-adv-x="728" d="M151 350Q151 290 166 242T210 161T277 110T363 92Q411 92 450 110T518 161T561 242T577 350Q577 411 562 459T518 540T450 590T363 608Q316 608 277 591T210 540T167 458T151 350ZM39 350Q39 433 63 500T131 615T234 688T363 714Q433 714 493 688T596 615T664 500T689 350Q689 267 665 200T597 85T493 12T363 -14Q293 -14 234 12T131 85T64 200T39 350ZM203 839L244 914L449 795L414 735L203 839Z"  />
<glyph unicode="&#xD3;" horiz-adv-x="728" d="M151 350Q151 290 166 242T210 161T277 110T363 92Q411 92 450 110T518 161T561 242T577 350Q577 411 562 459T518 540T450 590T363 608Q316 608 277 591T210 540T167 458T151 350ZM39 350Q39 433 63 500T131 615T234 688T363 714Q433 714 493 688T596 615T664 500T689 350Q689 267 665 200T597 85T493 12T363 -14Q293 -14 234 12T131 85T64 200T39 350ZM514 839L303 735L268 795L473 914L514 839Z"  />
<glyph unicode="&#xD4;" horiz-adv-x="728" d="M151 350Q151 290 166 242T210 161T277 110T363 92Q411 92 450 110T518 161T561 242T577 350Q577 411 562 459T518 540T450 590T363 608Q316 608 277 591T210 540T167 458T151 350ZM39 350Q39 433 63 500T131 615T234 688T363 714Q433 714 493 688T596 615T664 500T689 350Q689 267 665 200T597 85T493 12T363 -14Q293 -14 234 12T131 85T64 200T39 350ZM367 941L531 793L478 739L367 837L256 739L202 793L367 941Z"  />
<glyph unicode="&#xD5;" horiz-adv-x="728" d="M151 350Q151 290 166 242T210 161T277 110T363 92Q411 92 450 110T518 161T561 242T577 350Q577 411 562 459T518 540T450 590T363 608Q316 608 277 591T210 540T167 458T151 350ZM39 350Q39 433 63 500T131 615T234 688T363 714Q433 714 493 688T596 615T664 500T689 350Q689 267 665 200T597 85T493 12T363 -14Q293 -14 234 12T131 85T64 200T39 350ZM561 872Q561 846 553 825T528 787T490 762T441 753Q417 753 399 762T366 781T336 801T306 810Q285 810 273 798T261 765H177Q177 790 186 812T211 850T249 875T297 884Q322 884 340 875T374 856T403 836T432 827Q453 827 465 839T477 872H561Z"  />
<glyph unicode="&#xD6;" horiz-adv-x="728" d="M151 350Q151 290 166 242T210 161T277 110T363 92Q411 92 450 110T518 161T561 242T577 350Q577 411 562 459T518 540T450 590T363 608Q316 608 277 591T210 540T167 458T151 350ZM39 350Q39 433 63 500T131 615T234 688T363 714Q433 714 493 688T596 615T664 500T689 350Q689 267 665 200T597 85T493 12T363 -14Q293 -14 234 12T131 85T64 200T39 350ZM480 766Q457 766 441 782T425 822Q425 846 441 862T480 878Q503 878 518 862T534 822Q534 798 519 782T480 766ZM253 766Q230 766 214 782T198 822Q198 846 214 862T253 878Q276 878 291 862T307 822Q307 798 292 782T253 766Z"  />
<glyph unicode="&#xD7;" horiz-adv-x="651" d="M522 496L393 356L522 217L451 150L326 285L201 151L130 218L259 356L129 495L200 562L326 427L451 562L522 496Z"  />
<glyph unicode="&#xD8;" horiz-adv-x="728" d="M260 118Q306 92 363 92Q411 92 450 110T518 161T561 242T577 350Q577 448 537 513L260 118ZM470 580Q423 608 363 608Q316 608 277 591T210 540T167 458T151 350Q151 299 161 258T192 185L470 580ZM603 606Q644 558 666 494T689 350Q689 267 665 200T597 85T493 12T363 -14Q271 -14 198 30L168 -13L91 41L126 91Q84 139 62 204T39 350Q39 433 63 500T131 615T234 688T363 714Q457 714 532 668L564 713L641 660L603 606Z"  />
<glyph unicode="&#xD9;" horiz-adv-x="677" d="M609 700V277Q609 135 538 61T338 -14Q210 -14 139 60T68 277V700H176V276Q176 88 338 88Q500 88 500 276V700H609ZM175 839L216 914L421 795L386 735L175 839Z"  />
<glyph unicode="&#xDA;" horiz-adv-x="677" d="M609 700V277Q609 135 538 61T338 -14Q210 -14 139 60T68 277V700H176V276Q176 88 338 88Q500 88 500 276V700H609ZM486 839L275 735L240 795L445 914L486 839Z"  />
<glyph unicode="&#xDB;" horiz-adv-x="677" d="M609 700V277Q609 135 538 61T338 -14Q210 -14 139 60T68 277V700H176V276Q176 88 338 88Q500 88 500 276V700H609ZM339 941L503 793L450 739L339 837L228 739L174 793L339 941Z"  />
<glyph unicode="&#xDC;" horiz-adv-x="677" d="M609 700V277Q609 135 538 61T338 -14Q210 -14 139 60T68 277V700H176V276Q176 88 338 88Q500 88 500 276V700H609ZM452 766Q429 766 413 782T397 822Q397 846 413 862T452 878Q475 878 490 862T506 822Q506 798 491 782T452 766ZM225 766Q202 766 186 782T170 822Q170 846 186 862T225 878Q248 878 263 862T279 822Q279 798 264 782T225 766Z"  />
<glyph unicode="&#xDD;" horiz-adv-x="631" d="M617 700L369 322V0H262V322L14 700H133L277 484Q292 458 303 439T315 419H317Q318 419 329 438T355 484L498 700H617ZM462 839L251 735L216 795L421 914L462 839Z"  />
<glyph unicode="&#xDE;" horiz-adv-x="578" d="M304 226Q364 226 398 260T432 351Q432 408 398 442T304 477H191V226H304ZM301 579Q356 579 400 563T477 516T526 444T544 351Q544 300 527 259T477 187T401 141T301 124H191V0H82V700H191V579H301Z"  />
<glyph unicode="&#xDF;" horiz-adv-x="744" d="M650 700L541 497Q533 481 524 465T508 437T497 416T492 407L493 406H499Q544 406 581 391T647 348T690 283T706 202Q706 156 690 117T645 48T574 3T481 -14Q443 -14 409 -4T345 24T293 67T255 122L357 150Q375 117 406 98T476 79Q534 79 566 113T598 201Q598 226 590 248T565 287T525 313T470 323H389V406L452 526Q458 538 465 551T477 574T487 591T491 598L489 599Q488 599 467 598T416 597H191V0H82V700H650Z"  />
<glyph unicode="&#xE0;" horiz-adv-x="666" d="M445 256L362 485Q356 502 351 518T343 547T337 568T334 576H332Q332 576 330 568T323 548T314 519T303 485L221 256H445ZM480 159H186L129 0H14L278 700H387L652 0H537L480 159ZM379 735L168 839L209 914L414 795L379 735Z"  />
<glyph unicode="&#xE1;" horiz-adv-x="666" d="M445 256L362 485Q356 502 351 518T343 547T337 568T334 576H332Q332 576 330 568T323 548T314 519T303 485L221 256H445ZM480 159H186L129 0H14L278 700H387L652 0H537L480 159ZM268 735L233 795L438 914L479 839L268 735Z"  />
<glyph unicode="&#xE2;" horiz-adv-x="666" d="M445 256L362 485Q356 502 351 518T343 547T337 568T334 576H332Q332 576 330 568T323 548T314 519T303 485L221 256H445ZM480 159H186L129 0H14L278 700H387L652 0H537L480 159ZM221 739L167 793L332 941L496 793L443 739L332 837L221 739Z"  />
<glyph unicode="&#xE3;" horiz-adv-x="666" d="M445 256L362 485Q356 502 351 518T343 547T337 568T334 576H332Q332 576 330 568T323 548T314 519T303 485L221 256H445ZM480 159H186L129 0H14L278 700H387L652 0H537L480 159ZM526 872Q526 846 518 825T493 787T455 762T406 753Q382 753 364 762T331 781T301 801T271 810Q250 810 238 798T226 765H142Q142 790 151 812T176 850T214 875T262 884Q287 884 305 875T339 856T368 836T397 827Q418 827 430 839T442 872H526Z"  />
<glyph unicode="&#xE4;" horiz-adv-x="666" d="M445 256L362 485Q356 502 351 518T343 547T337 568T334 576H332Q332 576 330 568T323 548T314 519T303 485L221 256H445ZM480 159H186L129 0H14L278 700H387L652 0H537L480 159ZM445 766Q422 766 406 782T390 822Q390 846 406 862T445 878Q468 878 483 862T499 822Q499 798 484 782T445 766ZM218 766Q195 766 179 782T163 822Q163 846 179 862T218 878Q241 878 256 862T272 822Q272 798 257 782T218 766Z"  />
<glyph unicode="&#xE5;" horiz-adv-x="666" d="M445 256L362 485Q356 502 351 518T343 547T337 568T334 576H332Q332 576 330 568T323 548T314 519T303 485L221 256H445ZM333 865Q310 865 294 849T278 807Q278 784 294 767T333 750Q356 750 372 767T389 807Q389 832 373 848T333 865ZM480 159H186L129 0H14L277 698Q248 714 230 742T212 807Q212 832 221 854T247 892T286 918T333 928Q358 928 380 919T418 893T444 854T454 807Q454 771 436 742T388 698L652 0H537L480 159Z"  />
<glyph unicode="&#xE6;" horiz-adv-x="920" d="M419 597H350Q350 597 345 584T333 550T317 504T300 456L225 255H419V597ZM862 103V0H419V159H189L129 0H14L286 700H856V597H525V414H785V317H525V103H862Z"  />
<glyph unicode="&#xE7;" horiz-adv-x="685" d="M660 190Q625 99 553 46T386 -13L371 -52Q392 -52 410 -58T442 -77T464 -108T472 -149Q472 -199 441 -223T366 -247H281L305 -187H365Q386 -187 397 -177T409 -149Q409 -132 397 -121T365 -110H289L323 -12Q261 -5 209 24T119 100T60 210T39 350Q39 433 63 500T131 615T234 688T363 714Q460 714 534 666T649 530L541 501Q514 554 467 581T363 608Q315 608 276 590T210 539T167 458T151 350Q151 290 167 242T211 161T278 111T364 93Q427 93 477 125T553 218L660 190Z"  />
<glyph unicode="&#xE8;" d="M527 103V0H82V700H521V597H191V414H450V317H191V103H527ZM355 735L144 839L185 914L390 795L355 735Z"  />
<glyph unicode="&#xE9;" d="M527 103V0H82V700H521V597H191V414H450V317H191V103H527ZM244 735L209 795L414 914L455 839L244 735Z"  />
<glyph unicode="&#xEA;" d="M527 103V0H82V700H521V597H191V414H450V317H191V103H527ZM197 739L143 793L308 941L472 793L419 739L308 837L197 739Z"  />
<glyph unicode="&#xEB;" d="M527 103V0H82V700H521V597H191V414H450V317H191V103H527ZM421 766Q398 766 382 782T366 822Q366 846 382 862T421 878Q444 878 459 862T475 822Q475 798 460 782T421 766ZM194 766Q171 766 155 782T139 822Q139 846 155 862T194 878Q217 878 232 862T248 822Q248 798 233 782T194 766Z"  />
<glyph unicode="&#xEC;" horiz-adv-x="273" d="M82 0V700H191V0H82ZM-29 839L12 914L217 795L182 735L-29 839Z"  />
<glyph unicode="&#xED;" horiz-adv-x="273" d="M82 0V700H191V0H82ZM282 839L71 735L36 795L241 914L282 839Z"  />
<glyph unicode="&#xEE;" horiz-adv-x="273" d="M82 0V700H191V0H82ZM135 941L299 793L246 739L135 837L24 739L-30 793L135 941Z"  />
<glyph unicode="&#xEF;" horiz-adv-x="273" d="M82 0V700H191V0H82ZM248 766Q225 766 209 782T193 822Q193 846 209 862T248 878Q271 878 286 862T302 822Q302 798 287 782T248 766ZM21 766Q-2 766 -18 782T-34 822Q-34 846 -18 862T21 878Q44 878 59 862T75 822Q75 798 60 782T21 766Z"  />
<glyph unicode="&#xF0;" horiz-adv-x="724" d="M355 102Q402 102 442 118T511 166T557 243T574 347Q574 407 557 453T510 532T439 581T350 598H199V405H337V306H199V102H355ZM345 700Q419 700 481 675T589 604T659 492T685 347Q685 267 660 203T591 94T485 25T351 0H90V306H39V405H90V700H345Z"  />
<glyph unicode="&#xF1;" horiz-adv-x="705" d="M623 700V0H524L291 354Q271 382 253 410T220 461T196 498T187 512H185Q185 512 185 496T187 451T189 383T190 297V0H82V700H181L418 342Q434 318 452 292T484 243T508 207T518 192H520Q520 192 520 209T518 255T516 322T515 402V700H623ZM546 872Q546 846 538 825T513 787T475 762T426 753Q402 753 384 762T351 781T321 801T291 810Q270 810 258 798T246 765H162Q162 790 171 812T196 850T234 875T282 884Q307 884 325 875T359 856T388 836T417 827Q438 827 450 839T462 872H546Z"  />
<glyph unicode="&#xF2;" horiz-adv-x="728" d="M151 350Q151 290 166 242T210 161T277 110T363 92Q411 92 450 110T518 161T561 242T577 350Q577 411 562 459T518 540T450 590T363 608Q316 608 277 591T210 540T167 458T151 350ZM39 350Q39 433 63 500T131 615T234 688T363 714Q433 714 493 688T596 615T664 500T689 350Q689 267 665 200T597 85T493 12T363 -14Q293 -14 234 12T131 85T64 200T39 350ZM201 839L242 914L447 795L412 735L201 839Z"  />
<glyph unicode="&#xF3;" horiz-adv-x="728" d="M151 350Q151 290 166 242T210 161T277 110T363 92Q411 92 450 110T518 161T561 242T577 350Q577 411 562 459T518 540T450 590T363 608Q316 608 277 591T210 540T167 458T151 350ZM39 350Q39 433 63 500T131 615T234 688T363 714Q433 714 493 688T596 615T664 500T689 350Q689 267 665 200T597 85T493 12T363 -14Q293 -14 234 12T131 85T64 200T39 350ZM512 839L301 735L266 795L471 914L512 839Z"  />
<glyph unicode="&#xF4;" horiz-adv-x="728" d="M151 350Q151 290 166 242T210 161T277 110T363 92Q411 92 450 110T518 161T561 242T577 350Q577 411 562 459T518 540T450 590T363 608Q316 608 277 591T210 540T167 458T151 350ZM39 350Q39 433 63 500T131 615T234 688T363 714Q433 714 493 688T596 615T664 500T689 350Q689 267 665 200T597 85T493 12T363 -14Q293 -14 234 12T131 85T64 200T39 350ZM365 941L529 793L476 739L365 837L254 739L200 793L365 941Z"  />
<glyph unicode="&#xF5;" horiz-adv-x="728" d="M151 350Q151 290 166 242T210 161T277 110T363 92Q411 92 450 110T518 161T561 242T577 350Q577 411 562 459T518 540T450 590T363 608Q316 608 277 591T210 540T167 458T151 350ZM39 350Q39 433 63 500T131 615T234 688T363 714Q433 714 493 688T596 615T664 500T689 350Q689 267 665 200T597 85T493 12T363 -14Q293 -14 234 12T131 85T64 200T39 350ZM559 872Q559 846 551 825T526 787T488 762T439 753Q415 753 397 762T364 781T334 801T304 810Q283 810 271 798T259 765H175Q175 790 184 812T209 850T247 875T295 884Q320 884 338 875T372 856T401 836T430 827Q451 827 463 839T475 872H559Z"  />
<glyph unicode="&#xF6;" horiz-adv-x="728" d="M151 350Q151 290 166 242T210 161T277 110T363 92Q411 92 450 110T518 161T561 242T577 350Q577 411 562 459T518 540T450 590T363 608Q316 608 277 591T210 540T167 458T151 350ZM39 350Q39 433 63 500T131 615T234 688T363 714Q433 714 493 688T596 615T664 500T689 350Q689 267 665 200T597 85T493 12T363 -14Q293 -14 234 12T131 85T64 200T39 350ZM478 766Q455 766 439 782T423 822Q423 846 439 862T478 878Q501 878 516 862T532 822Q532 798 517 782T478 766ZM251 766Q228 766 212 782T196 822Q196 846 212 862T251 878Q274 878 289 862T305 822Q305 798 290 782T251 766Z"  />
<glyph unicode="&#xF7;" horiz-adv-x="651" d="M320 74Q295 74 279 91T262 133Q262 158 279 174T320 191Q344 191 360 174T377 133Q377 108 360 91T320 74ZM537 399V309H111V399H537ZM320 520Q295 520 279 537T262 579Q262 604 279 620T320 637Q344 637 360 620T377 579Q377 554 360 537T320 520Z"  />
<glyph unicode="&#xF8;" horiz-adv-x="728" d="M260 118Q306 92 363 92Q411 92 450 110T518 161T561 242T577 350Q577 448 537 513L260 118ZM470 580Q423 608 363 608Q316 608 277 591T210 540T167 458T151 350Q151 299 161 258T192 185L470 580ZM603 606Q644 558 666 494T689 350Q689 267 665 200T597 85T493 12T363 -14Q271 -14 198 30L168 -13L91 41L126 91Q84 139 62 204T39 350Q39 433 63 500T131 615T234 688T363 714Q457 714 532 668L564 713L641 660L603 606Z"  />
<glyph unicode="&#xF9;" horiz-adv-x="677" d="M609 700V277Q609 135 538 61T338 -14Q210 -14 139 60T68 277V700H176V276Q176 88 338 88Q500 88 500 276V700H609ZM175 839L216 914L421 795L386 735L175 839Z"  />
<glyph unicode="&#xFA;" horiz-adv-x="677" d="M609 700V277Q609 135 538 61T338 -14Q210 -14 139 60T68 277V700H176V276Q176 88 338 88Q500 88 500 276V700H609ZM486 839L275 735L240 795L445 914L486 839Z"  />
<glyph unicode="&#xFB;" horiz-adv-x="677" d="M609 700V277Q609 135 538 61T338 -14Q210 -14 139 60T68 277V700H176V276Q176 88 338 88Q500 88 500 276V700H609ZM339 941L503 793L450 739L339 837L228 739L174 793L339 941Z"  />
<glyph unicode="&#xFC;" horiz-adv-x="677" d="M609 700V277Q609 135 538 61T338 -14Q210 -14 139 60T68 277V700H176V276Q176 88 338 88Q500 88 500 276V700H609ZM452 766Q429 766 413 782T397 822Q397 846 413 862T452 878Q475 878 490 862T506 822Q506 798 491 782T452 766ZM225 766Q202 766 186 782T170 822Q170 846 186 862T225 878Q248 878 263 862T279 822Q279 798 264 782T225 766Z"  />
<glyph unicode="&#xFD;" horiz-adv-x="631" d="M617 700L369 322V0H262V322L14 700H133L277 484Q292 458 303 439T315 419H317Q318 419 329 438T355 484L498 700H617ZM462 839L251 735L216 795L421 914L462 839Z"  />
<glyph unicode="&#xFE;" horiz-adv-x="578" d="M304 226Q364 226 398 260T432 351Q432 408 398 442T304 477H191V226H304ZM301 579Q356 579 400 563T477 516T526 444T544 351Q544 300 527 259T477 187T401 141T301 124H191V0H82V700H191V579H301Z"  />
<glyph unicode="&#xFF;" horiz-adv-x="631" d="M617 700L369 322V0H262V322L14 700H133L277 484Q292 458 303 439T315 419H317Q318 419 329 438T355 484L498 700H617ZM428 766Q405 766 389 782T373 822Q373 846 389 862T428 878Q451 878 466 862T482 822Q482 798 467 782T428 766ZM201 766Q178 766 162 782T146 822Q146 846 162 862T201 878Q224 878 239 862T255 822Q255 798 240 782T201 766Z"  />
<glyph unicode="&#x100;" horiz-adv-x="666" d="M445 256L362 485Q356 502 351 518T343 547T337 568T334 576H332Q332 576 330 568T323 548T314 519T303 485L221 256H445ZM480 159H186L129 0H14L278 700H387L652 0H537L480 159ZM490 775H184V860H490V775Z"  />
<glyph unicode="&#x101;" horiz-adv-x="666" d="M445 256L362 485Q356 502 351 518T343 547T337 568T334 576H332Q332 576 330 568T323 548T314 519T303 485L221 256H445ZM480 159H186L129 0H14L278 700H387L652 0H537L480 159ZM490 775H184V860H490V775Z"  />
<glyph unicode="&#x102;" horiz-adv-x="666" d="M445 256L362 485Q356 502 351 518T343 547T337 568T334 576H332Q332 576 330 568T323 548T314 519T303 485L221 256H445ZM480 159H186L129 0H14L278 700H387L652 0H537L480 159ZM490 878Q485 848 471 824T437 782T390 754T335 744Q273 744 230 781T177 878H255Q260 850 281 831T335 812Q366 812 387 831T414 878H490Z"  />
<glyph unicode="&#x103;" horiz-adv-x="666" d="M445 256L362 485Q356 502 351 518T343 547T337 568T334 576H332Q332 576 330 568T323 548T314 519T303 485L221 256H445ZM480 159H186L129 0H14L278 700H387L652 0H537L480 159ZM490 878Q485 848 471 824T437 782T390 754T335 744Q273 744 230 781T177 878H255Q260 850 281 831T335 812Q366 812 387 831T414 878H490Z"  />
<glyph unicode="&#x104;" horiz-adv-x="666" d="M445 256L362 485Q356 502 351 518T343 547T337 568T334 576H332Q332 576 330 568T323 548T314 519T303 485L221 256H445ZM708 -144Q686 -190 648 -216T558 -243Q525 -243 497 -233T449 -205T417 -160T405 -99Q405 -68 416 -43T444 2T481 32T520 47L480 159H186L129 0H14L278 700H387L652 0H602Q580 0 559 -6T520 -24T492 -54T481 -98Q481 -129 501 -151T559 -173Q593 -173 615 -155T648 -108L708 -144Z"  />
<glyph unicode="&#x105;" horiz-adv-x="666" d="M445 256L362 485Q356 502 351 518T343 547T337 568T334 576H332Q332 576 330 568T323 548T314 519T303 485L221 256H445ZM708 -144Q686 -190 648 -216T558 -243Q525 -243 497 -233T449 -205T417 -160T405 -99Q405 -68 416 -43T444 2T481 32T520 47L480 159H186L129 0H14L278 700H387L652 0H602Q580 0 559 -6T520 -24T492 -54T481 -98Q481 -129 501 -151T559 -173Q593 -173 615 -155T648 -108L708 -144Z"  />
<glyph unicode="&#x106;" horiz-adv-x="685" d="M541 501Q514 554 467 581T363 608Q315 608 276 590T210 539T167 458T151 350Q151 290 167 242T211 161T278 111T364 93Q427 93 477 125T553 218L660 190Q622 95 544 41T363 -14Q293 -14 234 12T131 85T64 200T39 350Q39 433 63 500T131 615T234 688T363 714Q460 714 534 666T649 530L541 501ZM508 839L297 735L262 795L467 914L508 839Z"  />
<glyph unicode="&#x107;" horiz-adv-x="685" d="M541 501Q514 554 467 581T363 608Q315 608 276 590T210 539T167 458T151 350Q151 290 167 242T211 161T278 111T364 93Q427 93 477 125T553 218L660 190Q622 95 544 41T363 -14Q293 -14 234 12T131 85T64 200T39 350Q39 433 63 500T131 615T234 688T363 714Q460 714 534 666T649 530L541 501ZM508 839L297 735L262 795L467 914L508 839Z"  />
<glyph unicode="&#x10A;" horiz-adv-x="685" d="M541 501Q514 554 467 581T363 608Q315 608 276 590T210 539T167 458T151 350Q151 290 167 242T211 161T278 111T364 93Q427 93 477 125T553 218L660 190Q622 95 544 41T363 -14Q293 -14 234 12T131 85T64 200T39 350Q39 433 63 500T131 615T234 688T363 714Q460 714 534 666T649 530L541 501ZM361 765Q338 765 323 781T308 822Q308 845 323 861T361 878Q384 878 399 862T415 822Q415 798 400 782T361 765Z"  />
<glyph unicode="&#x10B;" horiz-adv-x="685" d="M541 501Q514 554 467 581T363 608Q315 608 276 590T210 539T167 458T151 350Q151 290 167 242T211 161T278 111T364 93Q427 93 477 125T553 218L660 190Q622 95 544 41T363 -14Q293 -14 234 12T131 85T64 200T39 350Q39 433 63 500T131 615T234 688T363 714Q460 714 534 666T649 530L541 501ZM361 765Q338 765 323 781T308 822Q308 845 323 861T361 878Q384 878 399 862T415 822Q415 798 400 782T361 765Z"  />
<glyph unicode="&#x10C;" horiz-adv-x="685" d="M197 876L251 930L362 832L473 930L526 876L362 728L197 876ZM649 530Q609 617 535 665T363 714Q293 714 234 689T132 616T64 501T39 350Q39 267 63 200T131 86T233 12T363 -14Q466 -14 544 40T660 190L553 218Q528 158 478 126T364 93Q317 93 278 110T211 161T167 242T151 350Q151 410 166 457T209 538T276 590T363 608Q420 608 467 581T541 501L649 530Z"  />
<glyph unicode="&#x10D;" horiz-adv-x="685" d="M197 876L251 930L362 832L473 930L526 876L362 728L197 876ZM649 530Q609 617 535 665T363 714Q293 714 234 689T132 616T64 501T39 350Q39 267 63 200T131 86T233 12T363 -14Q466 -14 544 40T660 190L553 218Q528 158 478 126T364 93Q317 93 278 110T211 161T167 242T151 350Q151 410 166 457T209 538T276 590T363 608Q420 608 467 581T541 501L649 530Z"  />
<glyph unicode="&#x10E;" horiz-adv-x="716" d="M180 876L234 930L345 832L456 930L509 876L345 728L180 876ZM82 700V0H343Q415 0 476 24T582 94T652 203T677 347Q677 427 652 492T581 603T474 675T337 700H82ZM191 102V598H342Q390 598 431 581T502 532T549 454T566 347Q566 289 550 244T504 167T434 119T347 102H191Z"  />
<glyph unicode="&#x10F;" horiz-adv-x="716" d="M180 876L234 930L345 832L456 930L509 876L345 728L180 876ZM82 700V0H343Q415 0 476 24T582 94T652 203T677 347Q677 427 652 492T581 603T474 675T337 700H82ZM191 102V598H342Q390 598 431 581T502 532T549 454T566 347Q566 289 550 244T504 167T434 119T347 102H191Z"  />
<glyph unicode="&#x110;" horiz-adv-x="724" d="M355 102Q402 102 442 118T511 166T557 243T574 347Q574 407 557 453T510 532T439 581T350 598H199V405H337V306H199V102H355ZM345 700Q419 700 481 675T589 604T659 492T685 347Q685 267 660 203T591 94T485 25T351 0H90V306H39V405H90V700H345Z"  />
<glyph unicode="&#x111;" horiz-adv-x="724" d="M355 102Q402 102 442 118T511 166T557 243T574 347Q574 407 557 453T510 532T439 581T350 598H199V405H337V306H199V102H355ZM345 700Q419 700 481 675T589 604T659 492T685 347Q685 267 660 203T591 94T485 25T351 0H90V306H39V405H90V700H345Z"  />
<glyph unicode="&#x112;" d="M527 103V0H82V700H521V597H191V414H450V317H191V103H527ZM467 775H161V860H467V775Z"  />
<glyph unicode="&#x113;" d="M527 103V0H82V700H521V597H191V414H450V317H191V103H527ZM466 775H160V860H466V775Z"  />
<glyph unicode="&#x116;" d="M527 103V0H82V700H521V597H191V414H450V317H191V103H527ZM309 765Q286 765 271 781T256 822Q256 845 271 861T309 878Q332 878 347 862T363 822Q363 798 348 782T309 765Z"  />
<glyph unicode="&#x117;" d="M527 103V0H82V700H521V597H191V414H450V317H191V103H527ZM309 765Q286 765 271 781T256 822Q256 845 271 861T309 878Q332 878 347 862T363 822Q363 798 348 782T309 765Z"  />
<glyph unicode="&#x118;" d="M548 -144Q526 -190 488 -216T398 -243Q365 -243 337 -233T289 -205T257 -160T245 -99Q245 -68 255 -44T282 0H82V700H521V597H191V414H450V317H191V103H527V0H442Q420 0 399 -6T360 -24T332 -54T321 -98Q321 -129 341 -151T399 -173Q433 -173 455 -155T488 -108L548 -144Z"  />
<glyph unicode="&#x119;" d="M561 -144Q539 -190 501 -216T411 -243Q378 -243 350 -233T302 -205T270 -160T258 -99Q258 -68 268 -44T295 0H82V700H521V597H191V414H450V317H191V103H527V0H455Q433 0 412 -6T373 -24T345 -54T334 -98Q334 -129 354 -151T412 -173Q446 -173 468 -155T501 -108L561 -144Z"  />
<glyph unicode="&#x11A;" d="M527 103V0H82V700H521V597H191V414H450V317H191V103H527ZM310 728L145 876L199 930L310 832L421 930L474 876L310 728Z"  />
<glyph unicode="&#x11B;" d="M527 103V0H82V700H521V597H191V414H450V317H191V103H527ZM309 728L144 876L198 930L309 832L420 930L473 876L309 728Z"  />
<glyph unicode="&#x11C;" horiz-adv-x="715" d="M567 84Q556 69 537 52T491 21T432 -3T361 -13Q292 -13 233 13T131 86T64 200T39 350Q39 433 63 500T131 615T234 688T363 714Q463 712 536 664T649 530L541 501Q514 554 467 581T363 608Q315 608 276 590T209 539T166 458T150 350Q150 289 166 241T212 160T281 110T370 92Q412 92 445 103T502 133T543 173T567 218V287H386V376H660V-1H567Q567 49 567 66T568 84H567ZM358 941L522 793L469 739L358 837L247 739L193 793L358 941Z"  />
<glyph unicode="&#x11D;" horiz-adv-x="715" d="M567 84Q556 69 537 52T491 21T432 -3T361 -13Q292 -13 233 13T131 86T64 200T39 350Q39 433 63 500T131 615T234 688T363 714Q463 712 536 664T649 530L541 501Q514 554 467 581T363 608Q315 608 276 590T209 539T166 458T150 350Q150 289 166 241T212 160T281 110T370 92Q412 92 445 103T502 133T543 173T567 218V287H386V376H660V-1H567Q567 49 567 66T568 84H567ZM358 941L522 793L469 739L358 837L247 739L193 793L358 941Z"  />
<glyph unicode="&#x11E;" horiz-adv-x="715" d="M567 84Q556 69 537 52T491 21T432 -3T361 -13Q292 -13 233 13T131 86T64 200T39 350Q39 433 63 500T131 615T234 688T363 714Q463 712 536 664T649 530L541 501Q514 554 467 581T363 608Q315 608 276 590T209 539T166 458T150 350Q150 289 166 241T212 160T281 110T370 92Q412 92 445 103T502 133T543 173T567 218V287H386V376H660V-1H567Q567 49 567 66T568 84H567ZM281 878Q286 850 307 831T361 812Q392 812 413 831T440 878H516Q511 848 497 824T463 782T416 754T361 744Q299 744 256 781T203 878H281Z"  />
<glyph unicode="&#x11F;" horiz-adv-x="715" d="M567 84Q556 69 537 52T491 21T432 -3T361 -13Q292 -13 233 13T131 86T64 200T39 350Q39 433 63 500T131 615T234 688T363 714Q463 712 536 664T649 530L541 501Q514 554 467 581T363 608Q315 608 276 590T209 539T166 458T150 350Q150 289 166 241T212 160T281 110T370 92Q412 92 445 103T502 133T543 173T567 218V287H386V376H660V-1H567Q567 49 567 66T568 84H567ZM281 878Q286 850 307 831T361 812Q392 812 413 831T440 878H516Q511 848 497 824T463 782T416 754T361 744Q299 744 256 781T203 878H281Z"  />
<glyph unicode="&#x120;" horiz-adv-x="715" d="M567 84Q556 69 537 52T491 21T432 -3T361 -13Q292 -13 233 13T131 86T64 200T39 350Q39 433 63 500T131 615T234 688T363 714Q463 712 536 664T649 530L541 501Q514 554 467 581T363 608Q315 608 276 590T209 539T166 458T150 350Q150 289 166 241T212 160T281 110T370 92Q412 92 445 103T502 133T543 173T567 218V287H386V376H660V-1H567Q567 49 567 66T568 84H567ZM358 765Q335 765 320 781T305 822Q305 845 320 861T358 878Q381 878 396 862T412 822Q412 798 397 782T358 765Z"  />
<glyph unicode="&#x121;" horiz-adv-x="715" d="M567 84Q556 69 537 52T491 21T432 -3T361 -13Q292 -13 233 13T131 86T64 200T39 350Q39 433 63 500T131 615T234 688T363 714Q463 712 536 664T649 530L541 501Q514 554 467 581T363 608Q315 608 276 590T209 539T166 458T150 350Q150 289 166 241T212 160T281 110T370 92Q412 92 445 103T502 133T543 173T567 218V287H386V376H660V-1H567Q567 49 567 66T568 84H567ZM358 765Q335 765 320 781T305 822Q305 845 320 861T358 878Q381 878 396 862T412 822Q412 798 397 782T358 765Z"  />
<glyph unicode="&#x122;" horiz-adv-x="715" d="M357 -147L346 -146Q329 -145 315 -132T301 -95Q301 -71 317 -55T356 -39Q379 -39 395 -57T411 -104Q411 -126 404 -148T386 -192T360 -232T329 -265H288Q298 -256 308 -243T327 -214T341 -182T346 -152L357 -147ZM567 84Q556 69 537 52T491 21T432 -3T361 -13Q292 -13 233 13T131 86T64 200T39 350Q39 433 63 500T131 615T234 688T363 714Q463 712 536 664T649 530L541 501Q514 554 467 581T363 608Q315 608 276 590T209 539T166 458T150 350Q150 289 166 241T212 160T281 110T370 92Q412 92 445 103T502 133T543 173T567 218V287H386V376H660V-1H567Q567 49 567 66T568 84H567Z"  />
<glyph unicode="&#x123;" horiz-adv-x="715" d="M357 -147L346 -146Q329 -145 315 -132T301 -95Q301 -71 317 -55T356 -39Q379 -39 395 -57T411 -104Q411 -126 404 -148T386 -192T360 -232T329 -265H288Q298 -256 308 -243T327 -214T341 -182T346 -152L357 -147ZM567 84Q556 69 537 52T491 21T432 -3T361 -13Q292 -13 233 13T131 86T64 200T39 350Q39 433 63 500T131 615T234 688T363 714Q463 712 536 664T649 530L541 501Q514 554 467 581T363 608Q315 608 276 590T209 539T166 458T150 350Q150 289 166 241T212 160T281 110T370 92Q412 92 445 103T502 133T543 173T567 218V287H386V376H660V-1H567Q567 49 567 66T568 84H567Z"  />
<glyph unicode="&#x124;" horiz-adv-x="685" d="M603 700V0H494V306H191V0H82V700H191V411H494V700H603ZM230 739L176 793L341 941L505 793L452 739L341 837L230 739Z"  />
<glyph unicode="&#x125;" horiz-adv-x="685" d="M603 700V0H494V306H191V0H82V700H191V411H494V700H603ZM230 739L176 793L341 941L505 793L452 739L341 837L230 739Z"  />
<glyph unicode="&#x126;" horiz-adv-x="685" d="M494 538H191V411H494V538ZM665 538H603V0H494V306H191V0H82V538H19V628H82V700H191V628H494V700H603V628H665V538Z"  />
<glyph unicode="&#x127;" horiz-adv-x="685" d="M494 538H191V411H494V538ZM665 538H603V0H494V306H191V0H82V538H19V628H82V700H191V628H494V700H603V628H665V538Z"  />
<glyph unicode="&#x12A;" horiz-adv-x="273" d="M82 0V700H191V0H82ZM293 860V775H-13V860H293Z"  />
<glyph unicode="&#x12B;" horiz-adv-x="273" d="M82 0V700H191V0H82ZM293 860V775H-13V860H293Z"  />
<glyph unicode="&#x12E;" horiz-adv-x="273" d="M262 -144Q240 -190 202 -216T112 -243Q79 -243 51 -233T3 -205T-29 -160T-41 -99Q-41 -66 -29 -40T1 5T41 35T82 48V700H191V0H156Q134 0 113 -6T74 -24T46 -54T35 -98Q35 -129 55 -151T113 -173Q147 -173 169 -155T202 -108L262 -144Z"  />
<glyph unicode="&#x12F;" horiz-adv-x="273" d="M262 -144Q240 -190 202 -216T112 -243Q79 -243 51 -233T3 -205T-29 -160T-41 -99Q-41 -66 -29 -40T1 5T41 35T82 48V700H191V0H156Q134 0 113 -6T74 -24T46 -54T35 -98Q35 -129 55 -151T113 -173Q147 -173 169 -155T202 -108L262 -144Z"  />
<glyph unicode="&#x130;" horiz-adv-x="273" d="M82 0V700H191V0H82ZM135 765Q112 765 97 781T82 822Q82 845 97 861T135 878Q158 878 173 862T189 822Q189 798 174 782T135 765Z"  />
<glyph unicode="&#x131;" horiz-adv-x="273" d="M82 0V700H191V0H82Z"  />
<glyph unicode="&#x132;" horiz-adv-x="873" d="M805 700V277Q805 137 732 62T530 -14Q482 -14 441 -1T366 35T309 91T273 164L379 192Q396 142 435 115T530 88Q611 88 653 136T696 270V700H805ZM82 0V700H191V0H82Z"  />
<glyph unicode="&#x133;" horiz-adv-x="873" d="M805 700V277Q805 137 732 62T530 -14Q482 -14 441 -1T366 35T309 91T273 164L379 192Q396 142 435 115T530 88Q611 88 653 136T696 270V700H805ZM82 0V700H191V0H82Z"  />
<glyph unicode="&#x134;" horiz-adv-x="614" d="M546 700V277Q546 137 473 62T271 -14Q223 -14 182 -1T107 35T50 91T14 164L120 192Q137 142 176 115T271 88Q352 88 394 136T437 270V700H546ZM489 941L653 793L600 739L489 837L378 739L324 793L489 941Z"  />
<glyph unicode="&#x135;" horiz-adv-x="614" d="M546 700V277Q546 137 473 62T271 -14Q223 -14 182 -1T107 35T50 91T14 164L120 192Q137 142 176 115T271 88Q352 88 394 136T437 270V700H546ZM489 941L653 793L600 739L489 837L378 739L324 793L489 941Z"  />
<glyph unicode="&#x136;" horiz-adv-x="655" d="M322 -146Q305 -145 291 -132T277 -95Q277 -71 293 -55T332 -39Q355 -39 371 -57T387 -104Q387 -126 380 -148T362 -192T336 -232T305 -265H264Q274 -256 284 -243T303 -214T317 -182T322 -152L333 -147L322 -146ZM630 0H503L272 335L191 248V0H82V700H191V537Q191 461 190 422T189 382H190Q190 382 198 390T219 413T249 447T287 489L484 700H615L343 411L630 0Z"  />
<glyph unicode="&#x137;" horiz-adv-x="655" d="M328 -146Q311 -145 297 -132T283 -95Q283 -71 299 -55T338 -39Q361 -39 377 -57T393 -104Q393 -126 386 -148T368 -192T342 -232T311 -265H270Q280 -256 290 -243T309 -214T323 -182T328 -152L339 -147L328 -146ZM630 0H503L272 335L191 248V0H82V700H191V537Q191 461 190 422T189 382H190Q190 382 198 390T219 413T249 447T287 489L484 700H615L343 411L630 0Z"  />
<glyph unicode="&#x139;" horiz-adv-x="537" d="M517 103V0H82V700H191V103H517ZM288 839L77 735L42 795L247 914L288 839Z"  />
<glyph unicode="&#x13A;" horiz-adv-x="537" d="M517 103V0H82V700H191V103H517ZM288 839L77 735L42 795L247 914L288 839Z"  />
<glyph unicode="&#x13B;" horiz-adv-x="537" d="M290 -146Q273 -145 259 -132T245 -95Q245 -71 261 -55T300 -39Q323 -39 339 -57T355 -104Q355 -126 348 -148T330 -192T304 -232T273 -265H232Q242 -256 252 -243T271 -214T285 -182T290 -152L301 -147L290 -146ZM517 103V0H82V700H191V103H517Z"  />
<glyph unicode="&#x13C;" horiz-adv-x="537" d="M269 -146Q252 -145 238 -132T224 -95Q224 -71 240 -55T279 -39Q302 -39 318 -57T334 -104Q334 -126 327 -148T309 -192T283 -232T252 -265H211Q221 -256 231 -243T250 -214T264 -182T269 -152L280 -147L269 -146ZM517 103V0H82V700H191V103H517Z"  />
<glyph unicode="&#x13D;" horiz-adv-x="537" d="M517 103V0H82V700H191V103H517ZM342 600Q325 602 310 616T295 655Q295 680 312 696T353 713Q377 713 393 694T410 645Q410 622 403 598T383 552T356 511T324 476H281Q292 485 303 499T322 529T336 563T342 595L353 599L342 600Z"  />
<glyph unicode="&#x13E;" horiz-adv-x="537" d="M517 103V0H82V700H191V103H517ZM322 605Q305 607 290 620T275 659Q275 684 292 700T333 717Q358 717 374 698T391 649Q391 626 384 602T364 556T336 515T304 480H262Q273 489 283 503T302 534T316 568T322 599L334 604L322 605Z"  />
<glyph unicode="&#x13F;" horiz-adv-x="539" d="M372 328Q349 328 334 344T318 384Q318 407 333 424T372 441Q395 441 410 424T426 384Q426 360 411 344T372 328ZM517 103V0H82V700H191V103H517Z"  />
<glyph unicode="&#x140;" horiz-adv-x="539" d="M372 328Q349 328 334 344T318 384Q318 407 333 424T372 441Q395 441 410 424T426 384Q426 360 411 344T372 328ZM517 103V0H82V700H191V103H517Z"  />
<glyph unicode="&#x141;" horiz-adv-x="539" d="M517 103V0H82V700H191V395L433 519V416L191 292V103H517Z"  />
<glyph unicode="&#x142;" horiz-adv-x="539" d="M517 103V0H82V700H191V395L433 519V416L191 292V103H517Z"  />
<glyph unicode="&#x143;" horiz-adv-x="705" d="M623 700V0H524L291 354Q271 382 253 410T220 461T196 498T187 512H185Q185 512 185 496T187 451T189 383T190 297V0H82V700H181L418 342Q434 318 452 292T484 243T508 207T518 192H520Q520 192 520 209T518 255T516 322T515 402V700H623ZM499 839L288 735L253 795L458 914L499 839Z"  />
<glyph unicode="&#x144;" horiz-adv-x="705" d="M623 700V0H524L291 354Q271 382 253 410T220 461T196 498T187 512H185Q185 512 185 496T187 451T189 383T190 297V0H82V700H181L418 342Q434 318 452 292T484 243T508 207T518 192H520Q520 192 520 209T518 255T516 322T515 402V700H623ZM499 839L288 735L253 795L458 914L499 839Z"  />
<glyph unicode="&#x145;" horiz-adv-x="705" d="M355 -147L344 -146Q327 -145 313 -132T299 -95Q299 -71 315 -55T354 -39Q377 -39 393 -57T409 -104Q409 -126 402 -148T384 -192T358 -232T327 -265H286Q296 -256 306 -243T325 -214T339 -182T344 -152L355 -147ZM623 700V0H524L291 354Q271 382 253 410T220 461T196 498T187 512H185Q185 512 185 496T187 451T189 383T190 297V0H82V700H181L418 342Q434 318 452 292T484 243T508 207T518 192H520Q520 192 520 209T518 255T516 322T515 402V700H623Z"  />
<glyph unicode="&#x146;" horiz-adv-x="705" d="M355 -147L344 -146Q327 -145 313 -132T299 -95Q299 -71 315 -55T354 -39Q377 -39 393 -57T409 -104Q409 -126 402 -148T384 -192T358 -232T327 -265H286Q296 -256 306 -243T325 -214T339 -182T344 -152L355 -147ZM623 700V0H524L291 354Q271 382 253 410T220 461T196 498T187 512H185Q185 512 185 496T187 451T189 383T190 297V0H82V700H181L418 342Q434 318 452 292T484 243T508 207T518 192H520Q520 192 520 209T518 255T516 322T515 402V700H623Z"  />
<glyph unicode="&#x147;" horiz-adv-x="705" d="M188 876L242 930L353 832L464 930L517 876L353 728L188 876ZM515 700V402Q515 360 516 322T518 255T519 209T520 192H518Q518 192 509 206T485 243T452 291T418 342L181 700H82V0H190V297Q190 343 189 382T187 450T186 495T185 512H187Q187 512 196 498T219 462T252 411T291 354L524 0H623V700H515Z"  />
<glyph unicode="&#x148;" horiz-adv-x="705" d="M188 876L242 930L353 832L464 930L517 876L353 728L188 876ZM515 700V402Q515 360 516 322T518 255T519 209T520 192H518Q518 192 509 206T485 243T452 291T418 342L181 700H82V0H190V297Q190 343 189 382T187 450T186 495T185 512H187Q187 512 196 498T219 462T252 411T291 354L524 0H623V700H515Z"  />
<glyph unicode="&#x14A;" horiz-adv-x="705" d="M623 700V0Q623 -48 608 -87T567 -156T503 -201T423 -217H384V-129H414Q464 -129 494 -94T524 0L291 354Q271 382 253 410T220 461T196 498T187 512H185Q185 512 185 496T187 451T189 383T190 297V0H82V700H181L418 342Q434 318 452 292T484 243T508 207T518 192H520Q520 192 520 209T518 255T516 322T515 402V700H623Z"  />
<glyph unicode="&#x14B;" horiz-adv-x="705" d="M623 700V0Q623 -48 608 -87T567 -156T503 -201T423 -217H384V-129H414Q464 -129 494 -94T524 0L291 354Q271 382 253 410T220 461T196 498T187 512H185Q185 512 185 496T187 451T189 383T190 297V0H82V700H181L418 342Q434 318 452 292T484 243T508 207T518 192H520Q520 192 520 209T518 255T516 322T515 402V700H623Z"  />
<glyph unicode="&#x14C;" horiz-adv-x="728" d="M151 350Q151 290 166 242T210 161T277 110T363 92Q411 92 450 110T518 161T561 242T577 350Q577 411 562 459T518 540T450 590T363 608Q316 608 277 591T210 540T167 458T151 350ZM39 350Q39 433 63 500T131 615T234 688T363 714Q433 714 493 688T596 615T664 500T689 350Q689 267 665 200T597 85T493 12T363 -14Q293 -14 234 12T131 85T64 200T39 350ZM525 860V775H219V860H525Z"  />
<glyph unicode="&#x14D;" horiz-adv-x="728" d="M151 350Q151 290 166 242T210 161T277 110T363 92Q411 92 450 110T518 161T561 242T577 350Q577 411 562 459T518 540T450 590T363 608Q316 608 277 591T210 540T167 458T151 350ZM39 350Q39 433 63 500T131 615T234 688T363 714Q433 714 493 688T596 615T664 500T689 350Q689 267 665 200T597 85T493 12T363 -14Q293 -14 234 12T131 85T64 200T39 350ZM523 860V775H217V860H523Z"  />
<glyph unicode="&#x150;" horiz-adv-x="728" d="M151 350Q151 290 166 242T210 161T277 110T363 92Q411 92 450 110T518 161T561 242T577 350Q577 411 562 459T518 540T450 590T363 608Q316 608 277 591T210 540T167 458T151 350ZM39 350Q39 433 63 500T131 615T234 688T363 714Q433 714 493 688T596 615T664 500T689 350Q689 267 665 200T597 85T493 12T363 -14Q293 -14 234 12T131 85T64 200T39 350ZM623 839L412 735L377 795L582 914L623 839ZM447 839L236 735L201 795L406 914L447 839Z"  />
<glyph unicode="&#x151;" horiz-adv-x="728" d="M151 350Q151 290 166 242T210 161T277 110T363 92Q411 92 450 110T518 161T561 242T577 350Q577 411 562 459T518 540T450 590T363 608Q316 608 277 591T210 540T167 458T151 350ZM39 350Q39 433 63 500T131 615T234 688T363 714Q433 714 493 688T596 615T664 500T689 350Q689 267 665 200T597 85T493 12T363 -14Q293 -14 234 12T131 85T64 200T39 350ZM621 839L410 735L375 795L580 914L621 839ZM445 839L234 735L199 795L404 914L445 839Z"  />
<glyph unicode="&#x152;" horiz-adv-x="931" d="M430 586Q401 598 360 598Q266 598 209 534T151 350Q151 290 166 244T209 166T275 118T360 102Q401 102 430 114V586ZM873 103V0H430V1Q413 -2 396 -3T358 -4Q288 -4 230 20T129 91T63 202T39 350Q39 432 63 498T129 609T230 679T358 704Q373 704 391 703T430 699V700H867V597H536V414H796V317H536V103H873Z"  />
<glyph unicode="&#x153;" horiz-adv-x="931" d="M430 586Q401 598 360 598Q266 598 209 534T151 350Q151 290 166 244T209 166T275 118T360 102Q401 102 430 114V586ZM873 103V0H430V1Q413 -2 396 -3T358 -4Q288 -4 230 20T129 91T63 202T39 350Q39 432 63 498T129 609T230 679T358 704Q373 704 391 703T430 699V700H867V597H536V414H796V317H536V103H873Z"  />
<glyph unicode="&#x154;" horiz-adv-x="606" d="M302 347Q367 347 401 383T435 473Q435 528 401 563T302 598H191V347H302ZM449 0L314 252Q309 251 304 251T293 251H191V0H82V700H293Q351 700 398 684T478 639T529 567T547 473Q547 400 513 350T417 273L571 0H449ZM222 735L187 795L392 914L433 839L222 735Z"  />
<glyph unicode="&#x155;" horiz-adv-x="606" d="M302 347Q367 347 401 383T435 473Q435 528 401 563T302 598H191V347H302ZM449 0L314 252Q309 251 304 251T293 251H191V0H82V700H293Q351 700 398 684T478 639T529 567T547 473Q547 400 513 350T417 273L571 0H449ZM234 735L199 795L404 914L445 839L234 735Z"  />
<glyph unicode="&#x156;" horiz-adv-x="606" d="M294 -146Q277 -145 263 -132T249 -95Q249 -71 265 -55T304 -39Q327 -39 343 -57T359 -104Q359 -126 352 -148T334 -192T308 -232T277 -265H236Q246 -256 256 -243T275 -214T289 -182T294 -152L305 -147L294 -146ZM302 347Q367 347 401 383T435 473Q435 528 401 563T302 598H191V347H302ZM571 0H449L314 252Q309 251 304 251T293 251H191V0H82V700H293Q351 700 398 684T478 639T529 567T547 473Q547 400 513 350T417 273L571 0Z"  />
<glyph unicode="&#x157;" horiz-adv-x="606" d="M308 -146Q291 -145 277 -132T263 -95Q263 -71 279 -55T318 -39Q341 -39 357 -57T373 -104Q373 -126 366 -148T348 -192T322 -232T291 -265H250Q260 -256 270 -243T289 -214T303 -182T308 -152L319 -147L308 -146ZM302 347Q367 347 401 383T435 473Q435 528 401 563T302 598H191V347H302ZM571 0H449L314 252Q309 251 304 251T293 251H191V0H82V700H293Q351 700 398 684T478 639T529 567T547 473Q547 400 513 350T417 273L571 0Z"  />
<glyph unicode="&#x158;" horiz-adv-x="606" d="M302 347Q367 347 401 383T435 473Q435 528 401 563T302 598H191V347H302ZM449 0L314 252Q309 251 304 251T293 251H191V0H82V700H293Q351 700 398 684T478 639T529 567T547 473Q547 400 513 350T417 273L571 0H449ZM287 728L122 876L176 930L287 832L398 930L451 876L287 728Z"  />
<glyph unicode="&#x159;" horiz-adv-x="606" d="M302 347Q367 347 401 383T435 473Q435 528 401 563T302 598H191V347H302ZM449 0L314 252Q309 251 304 251T293 251H191V0H82V700H293Q351 700 398 684T478 639T529 567T547 473Q547 400 513 350T417 273L571 0H449ZM287 728L122 876L176 930L287 832L398 930L451 876L287 728Z"  />
<glyph unicode="&#x15A;" horiz-adv-x="561" d="M420 502Q407 559 368 589T276 619Q223 619 191 594T159 528Q159 505 173 488T210 456T263 429T325 403Q360 389 396 371T462 329T511 271T530 191Q530 147 513 110T463 45T386 2T287 -14Q233 -14 190 1T115 43T61 107T29 190L132 218Q136 191 149 167T182 124T229 95T290 84Q350 84 383 113T417 186Q417 216 401 236T359 271T300 300T232 328Q201 342 169 358T109 396T65 450T48 524Q48 563 65 597T112 658T186 699T281 714Q327 714 366 701T437 663T490 605T522 530L420 502ZM434 839L223 735L188 795L393 914L434 839Z"  />
<glyph unicode="&#x15B;" horiz-adv-x="561" d="M420 502Q407 559 368 589T276 619Q223 619 191 594T159 528Q159 505 173 488T210 456T263 429T325 403Q360 389 396 371T462 329T511 271T530 191Q530 147 513 110T463 45T386 2T287 -14Q233 -14 190 1T115 43T61 107T29 190L132 218Q136 191 149 167T182 124T229 95T290 84Q350 84 383 113T417 186Q417 216 401 236T359 271T300 300T232 328Q201 342 169 358T109 396T65 450T48 524Q48 563 65 597T112 658T186 699T281 714Q327 714 366 701T437 663T490 605T522 530L420 502ZM440 839L229 735L194 795L399 914L440 839Z"  />
<glyph unicode="&#x15C;" horiz-adv-x="561" d="M420 502Q407 559 368 589T276 619Q223 619 191 594T159 528Q159 505 173 488T210 456T263 429T325 403Q360 389 396 371T462 329T511 271T530 191Q530 147 513 110T463 45T386 2T287 -14Q233 -14 190 1T115 43T61 107T29 190L132 218Q136 191 149 167T182 124T229 95T290 84Q350 84 383 113T417 186Q417 216 401 236T359 271T300 300T232 328Q201 342 169 358T109 396T65 450T48 524Q48 563 65 597T112 658T186 699T281 714Q327 714 366 701T437 663T490 605T522 530L420 502ZM287 941L451 793L398 739L287 837L176 739L122 793L287 941Z"  />
<glyph unicode="&#x15D;" horiz-adv-x="561" d="M420 502Q407 559 368 589T276 619Q223 619 191 594T159 528Q159 505 173 488T210 456T263 429T325 403Q360 389 396 371T462 329T511 271T530 191Q530 147 513 110T463 45T386 2T287 -14Q233 -14 190 1T115 43T61 107T29 190L132 218Q136 191 149 167T182 124T229 95T290 84Q350 84 383 113T417 186Q417 216 401 236T359 271T300 300T232 328Q201 342 169 358T109 396T65 450T48 524Q48 563 65 597T112 658T186 699T281 714Q327 714 366 701T437 663T490 605T522 530L420 502ZM287 941L451 793L398 739L287 837L176 739L122 793L287 941Z"  />
<glyph unicode="&#x15E;" horiz-adv-x="561" d="M420 502Q407 559 368 589T276 619Q223 619 191 594T159 528Q159 505 173 488T210 456T263 429T325 403Q360 389 396 371T462 329T511 271T530 191Q530 151 516 117T475 55T410 11T326 -12L311 -52Q332 -52 350 -58T382 -77T404 -108T412 -149Q412 -199 381 -223T306 -247H221L245 -187H305Q326 -187 337 -177T349 -149Q349 -132 337 -121T305 -110H229L262 -13Q166 -6 107 50T29 190L132 218Q136 191 149 167T182 124T229 95T290 84Q350 84 383 113T417 186Q417 216 401 236T359 271T300 300T232 328Q201 342 169 358T109 396T65 450T48 524Q48 563 65 597T112 658T186 699T281 714Q327 714 366 701T437 663T490 605T522 530L420 502Z"  />
<glyph unicode="&#x15F;" horiz-adv-x="561" d="M420 502Q407 559 368 589T276 619Q223 619 191 594T159 528Q159 505 173 488T210 456T263 429T325 403Q360 389 396 371T462 329T511 271T530 191Q530 151 516 117T476 56T413 12T331 -11L315 -52Q336 -52 354 -58T386 -77T408 -108T416 -149Q416 -199 385 -223T310 -247H225L249 -187H309Q330 -187 341 -177T353 -149Q353 -132 341 -121T309 -110H233L266 -13Q217 -10 178 6T109 49T59 112T29 190L132 218Q136 191 149 167T182 124T229 95T290 84Q350 84 383 113T417 186Q417 216 401 236T359 271T300 300T232 328Q201 342 169 358T109 396T65 450T48 524Q48 563 65 597T112 658T186 699T281 714Q327 714 366 701T437 663T490 605T522 530L420 502Z"  />
<glyph unicode="&#x160;" horiz-adv-x="561" d="M123 876L177 930L288 832L399 930L452 876L288 728L123 876ZM522 530Q512 571 491 605T438 663T367 700T281 714Q229 714 186 699T113 658T65 598T48 524Q48 481 65 450T109 397T168 358T232 328Q267 313 300 300T359 272T401 236T417 186Q417 142 384 113T290 84Q256 84 229 94T182 123T149 166T132 218L29 190Q39 145 60 108T114 43T190 1T287 -14Q341 -14 386 1T463 44T512 109T530 191Q530 237 511 270T463 328T397 371T325 403Q293 416 263 428T210 455T173 487T159 528Q159 569 191 594T276 619Q328 619 367 589T420 502L522 530Z"  />
<glyph unicode="&#x161;" horiz-adv-x="561" d="M129 876L183 930L294 832L405 930L458 876L294 728L129 876ZM522 530Q512 571 491 605T438 663T367 700T281 714Q229 714 186 699T113 658T65 598T48 524Q48 481 65 450T109 397T168 358T232 328Q267 313 300 300T359 272T401 236T417 186Q417 142 384 113T290 84Q256 84 229 94T182 123T149 166T132 218L29 190Q39 145 60 108T114 43T190 1T287 -14Q341 -14 386 1T463 44T512 109T530 191Q530 237 511 270T463 328T397 371T325 403Q293 416 263 428T210 455T173 487T159 528Q159 569 191 594T276 619Q328 619 367 589T420 502L522 530Z"  />
<glyph unicode="&#x162;" horiz-adv-x="557" d="M303 0L283 -52Q304 -52 322 -58T354 -77T376 -108T384 -149Q384 -199 353 -223T278 -247H193L217 -187H277Q298 -187 309 -177T321 -149Q321 -132 309 -121T277 -110H201L239 0H223V597H17V700H540V597H332V0H303Z"  />
<glyph unicode="&#x163;" horiz-adv-x="557" d="M303 0L283 -52Q304 -52 322 -58T354 -77T376 -108T384 -149Q384 -199 353 -223T278 -247H193L217 -187H277Q298 -187 309 -177T321 -149Q321 -132 309 -121T277 -110H201L239 0H223V597H17V700H540V597H332V0H303Z"  />
<glyph unicode="&#x164;" horiz-adv-x="557" d="M540 700V597H332V0H223V597H17V700H540ZM285 728L120 876L174 930L285 832L396 930L449 876L285 728Z"  />
<glyph unicode="&#x165;" horiz-adv-x="557" d="M540 700V597H332V0H223V597H17V700H540ZM285 728L120 876L174 930L285 832L396 930L449 876L285 728Z"  />
<glyph unicode="&#x166;" horiz-adv-x="557" d="M332 597V416H446V332H332V0H223V332H110V416H223V597H17V700H540V597H332Z"  />
<glyph unicode="&#x167;" horiz-adv-x="557" d="M332 597V416H446V332H332V0H223V332H110V416H223V597H17V700H540V597H332Z"  />
<glyph unicode="&#x16A;" horiz-adv-x="677" d="M609 700V277Q609 135 538 61T338 -14Q210 -14 139 60T68 277V700H176V276Q176 88 338 88Q500 88 500 276V700H609ZM497 860V775H191V860H497Z"  />
<glyph unicode="&#x16B;" horiz-adv-x="677" d="M609 700V277Q609 135 538 61T338 -14Q210 -14 139 60T68 277V700H176V276Q176 88 338 88Q500 88 500 276V700H609ZM497 860V775H191V860H497Z"  />
<glyph unicode="&#x16C;" horiz-adv-x="677" d="M609 700V277Q609 135 538 61T338 -14Q210 -14 139 60T68 277V700H176V276Q176 88 338 88Q500 88 500 276V700H609ZM262 878Q267 850 288 831T342 812Q373 812 394 831T421 878H497Q492 848 478 824T444 782T397 754T342 744Q280 744 237 781T184 878H262Z"  />
<glyph unicode="&#x16D;" horiz-adv-x="677" d="M609 700V277Q609 135 538 61T338 -14Q210 -14 139 60T68 277V700H176V276Q176 88 338 88Q500 88 500 276V700H609ZM262 878Q267 850 288 831T342 812Q373 812 394 831T421 878H497Q492 848 478 824T444 782T397 754T342 744Q280 744 237 781T184 878H262Z"  />
<glyph unicode="&#x16E;" horiz-adv-x="677" d="M609 700V277Q609 135 538 61T338 -14Q210 -14 139 60T68 277V700H176V276Q176 88 338 88Q500 88 500 276V700H609ZM340 750Q363 750 379 767T396 807Q396 832 380 848T340 865Q317 865 301 849T285 807Q285 784 301 767T340 750ZM340 685Q315 685 293 694T255 720T229 759T219 807Q219 832 228 854T254 892T293 918T340 928Q365 928 387 919T425 893T451 854T461 807Q461 781 452 759T426 721T387 695T340 685Z"  />
<glyph unicode="&#x16F;" horiz-adv-x="677" d="M609 700V277Q609 135 538 61T338 -14Q210 -14 139 60T68 277V700H176V276Q176 88 338 88Q500 88 500 276V700H609ZM340 750Q363 750 379 767T396 807Q396 832 380 848T340 865Q317 865 301 849T285 807Q285 784 301 767T340 750ZM340 685Q315 685 293 694T255 720T229 759T219 807Q219 832 228 854T254 892T293 918T340 928Q365 928 387 919T425 893T451 854T461 807Q461 781 452 759T426 721T387 695T340 685Z"  />
<glyph unicode="&#x170;" horiz-adv-x="677" d="M609 700V277Q609 135 538 61T338 -14Q210 -14 139 60T68 277V700H176V276Q176 88 338 88Q500 88 500 276V700H609ZM595 839L384 735L349 795L554 914L595 839ZM419 839L208 735L173 795L378 914L419 839Z"  />
<glyph unicode="&#x171;" horiz-adv-x="677" d="M609 700V277Q609 135 538 61T338 -14Q210 -14 139 60T68 277V700H176V276Q176 88 338 88Q500 88 500 276V700H609ZM595 839L384 735L349 795L554 914L595 839ZM419 839L208 735L173 795L378 914L419 839Z"  />
<glyph unicode="&#x172;" horiz-adv-x="677" d="M609 277Q609 161 561 90T423 -4Q387 -18 360 -40T332 -101Q332 -133 351 -153T405 -173Q432 -173 456 -155T491 -110L549 -147Q529 -188 490 -215T404 -243Q373 -243 346 -234T299 -207T267 -164T255 -108Q255 -76 268 -53T301 -12Q190 -1 129 72T68 277V700H176V276Q176 88 338 88Q500 88 500 276V700H609V277Z"  />
<glyph unicode="&#x173;" horiz-adv-x="677" d="M609 277Q609 161 561 90T423 -4Q387 -18 360 -40T332 -101Q332 -133 351 -153T405 -173Q432 -173 456 -155T491 -110L549 -147Q529 -188 490 -215T404 -243Q373 -243 346 -234T299 -207T267 -164T255 -108Q255 -76 268 -53T301 -12Q190 -1 129 72T68 277V700H176V276Q176 88 338 88Q500 88 500 276V700H609V277Z"  />
<glyph unicode="&#x174;" horiz-adv-x="939" d="M913 700L710 0H608L503 356Q483 421 477 454T470 488H469Q468 488 462 454T436 356L331 0H228L26 700H140L257 275Q270 227 275 193T282 159H284Q285 159 292 193T314 275L420 621H519L625 275Q640 227 647 193T655 159H656Q657 159 663 193T681 275L798 700H913ZM467 941L631 793L578 739L467 837L356 739L302 793L467 941Z"  />
<glyph unicode="&#x175;" horiz-adv-x="939" d="M913 700L710 0H608L503 356Q483 421 477 454T470 488H469Q468 488 462 454T436 356L331 0H228L26 700H140L257 275Q270 227 275 193T282 159H284Q285 159 292 193T314 275L420 621H519L625 275Q640 227 647 193T655 159H656Q657 159 663 193T681 275L798 700H913ZM466 941L630 793L577 739L466 837L355 739L301 793L466 941Z"  />
<glyph unicode="&#x176;" horiz-adv-x="631" d="M617 700L369 322V0H262V322L14 700H133L277 484Q292 458 303 439T315 419H317Q318 419 329 438T355 484L498 700H617ZM315 941L479 793L426 739L315 837L204 739L150 793L315 941Z"  />
<glyph unicode="&#x177;" horiz-adv-x="631" d="M617 700L369 322V0H262V322L14 700H133L277 484Q292 458 303 439T315 419H317Q318 419 329 438T355 484L498 700H617ZM315 941L479 793L426 739L315 837L204 739L150 793L315 941Z"  />
<glyph unicode="&#x178;" horiz-adv-x="631" d="M617 700L369 322V0H262V322L14 700H133L277 484Q292 458 303 439T315 419H317Q318 419 329 438T355 484L498 700H617ZM428 766Q405 766 389 782T373 822Q373 846 389 862T428 878Q451 878 466 862T482 822Q482 798 467 782T428 766ZM201 766Q178 766 162 782T146 822Q146 846 162 862T201 878Q224 878 239 862T255 822Q255 798 240 782T201 766Z"  />
<glyph unicode="&#x179;" horiz-adv-x="638" d="M582 599L245 162Q225 136 209 119T193 101L194 100Q195 100 221 101T290 103H582V0H56V101L401 542Q408 551 417 561T434 579T447 593T453 599L452 600Q452 600 444 600T423 599T392 598T355 597H66V700H582V599ZM471 839L260 735L225 795L430 914L471 839Z"  />
<glyph unicode="&#x17A;" horiz-adv-x="638" d="M582 599L245 162Q225 136 209 119T193 101L194 100Q195 100 221 101T290 103H582V0H56V101L401 542Q408 551 417 561T434 579T447 593T453 599L452 600Q452 600 444 600T423 599T392 598T355 597H66V700H582V599ZM473 839L262 735L227 795L432 914L473 839Z"  />
<glyph unicode="&#x17B;" horiz-adv-x="638" d="M582 599L245 162Q225 136 209 119T193 101L194 100Q195 100 221 101T290 103H582V0H56V101L401 542Q408 551 417 561T434 579T447 593T453 599L452 600Q452 600 444 600T423 599T392 598T355 597H66V700H582V599ZM324 765Q301 765 286 781T271 822Q271 845 286 861T324 878Q347 878 362 862T378 822Q378 798 363 782T324 765Z"  />
<glyph unicode="&#x17C;" horiz-adv-x="638" d="M582 599L245 162Q225 136 209 119T193 101L194 100Q195 100 221 101T290 103H582V0H56V101L401 542Q408 551 417 561T434 579T447 593T453 599L452 600Q452 600 444 600T423 599T392 598T355 597H66V700H582V599ZM324 765Q301 765 286 781T271 822Q271 845 286 861T324 878Q347 878 362 862T378 822Q378 798 363 782T324 765Z"  />
<glyph unicode="&#x17D;" horiz-adv-x="638" d="M160 876L214 930L325 832L436 930L489 876L325 728L160 876ZM582 700H66V597H355Q374 597 391 597T422 598T444 599T452 600L453 599Q453 599 448 594T435 580T418 561T401 542L56 101V0H582V103H290Q248 103 222 102T194 100L193 101Q193 102 209 119T245 162L582 599V700Z"  />
<glyph unicode="&#x17E;" horiz-adv-x="638" d="M162 876L216 930L327 832L438 930L491 876L327 728L162 876ZM582 700H66V597H355Q374 597 391 597T422 598T444 599T452 600L453 599Q453 599 448 594T435 580T418 561T401 542L56 101V0H582V103H290Q248 103 222 102T194 100L193 101Q193 102 209 119T245 162L582 599V700Z"  />
<glyph unicode="&#x192;" horiz-adv-x="396" d="M33 423H139L164 596Q172 654 201 685Q228 714 271 723T375 724V648Q314 653 288 640T255 584L232 423H350V353H222L168 -32Q159 -95 128 -126Q105 -149 70 -155T-15 -155V-81Q22 -84 45 -75T74 -25L129 353H33V423Z"  />
<glyph unicode="&#x218;" horiz-adv-x="561" d="M278 -147L267 -146Q250 -145 236 -132T222 -95Q222 -71 238 -55T277 -39Q300 -39 316 -57T332 -104Q332 -126 325 -148T307 -192T281 -232T250 -265H209Q219 -256 229 -243T248 -214T262 -182T267 -152L278 -147ZM420 502Q407 559 368 589T276 619Q223 619 191 594T159 528Q159 505 173 488T210 456T263 429T325 403Q360 389 396 371T462 329T511 271T530 191Q530 147 513 110T463 45T386 2T287 -14Q233 -14 190 1T115 43T61 107T29 190L132 218Q136 191 149 167T182 124T229 95T290 84Q350 84 383 113T417 186Q417 216 401 236T359 271T300 300T232 328Q201 342 169 358T109 396T65 450T48 524Q48 563 65 597T112 658T186 699T281 714Q327 714 366 701T437 663T490 605T522 530L420 502Z"  />
<glyph unicode="&#x219;" horiz-adv-x="561" d="M278 -147L267 -146Q250 -145 236 -132T222 -95Q222 -71 238 -55T277 -39Q300 -39 316 -57T332 -104Q332 -126 325 -148T307 -192T281 -232T250 -265H209Q219 -256 229 -243T248 -214T262 -182T267 -152L278 -147ZM420 502Q407 559 368 589T276 619Q223 619 191 594T159 528Q159 505 173 488T210 456T263 429T325 403Q360 389 396 371T462 329T511 271T530 191Q530 147 513 110T463 45T386 2T287 -14Q233 -14 190 1T115 43T61 107T29 190L132 218Q136 191 149 167T182 124T229 95T290 84Q350 84 383 113T417 186Q417 216 401 236T359 271T300 300T232 328Q201 342 169 358T109 396T65 450T48 524Q48 563 65 597T112 658T186 699T281 714Q327 714 366 701T437 663T490 605T522 530L420 502Z"  />
<glyph unicode="&#x21A;" horiz-adv-x="557" d="M275 -146Q258 -145 244 -132T230 -95Q230 -71 246 -55T285 -39Q308 -39 324 -57T340 -104Q340 -126 333 -148T315 -192T289 -232T258 -265H217Q227 -256 237 -243T256 -214T270 -182T275 -152L286 -147L275 -146ZM540 700V597H332V0H223V597H17V700H540Z"  />
<glyph unicode="&#x21B;" horiz-adv-x="557" d="M251 -146Q234 -145 220 -132T206 -95Q206 -71 222 -55T261 -39Q284 -39 300 -57T316 -104Q316 -126 309 -148T291 -192T265 -232T234 -265H193Q203 -256 213 -243T232 -214T246 -182T251 -152L262 -147L251 -146ZM540 700V597H332V0H223V597H17V700H540Z"  />
<glyph unicode="&#x237;" horiz-adv-x="614" d="M546 700V277Q546 137 473 62T271 -14Q223 -14 182 -1T107 35T50 91T14 164L120 192Q137 142 176 115T271 88Q352 88 394 136T437 270V700H546Z"  />
<glyph unicode="&#x2C6;" horiz-adv-x="378" d="M181 941L345 793L292 739L181 837L70 739L16 793L181 941Z"  />
<glyph unicode="&#x2C7;" horiz-adv-x="378" d="M16 876L70 930L181 832L292 930L345 876L181 728L16 876Z"  />
<glyph unicode="&#x2D8;" horiz-adv-x="342" d="M81 878Q86 850 107 831T160 812Q191 812 212 831T239 878H316Q311 848 297 824T263 782T216 754T160 744Q98 744 55 781T3 878H81Z"  />
<glyph unicode="&#x2D9;" horiz-adv-x="174" d="M77 765Q54 765 39 781T23 822Q23 845 38 861T77 878Q100 878 115 862T131 822Q131 798 116 782T77 765Z"  />
<glyph unicode="&#x2DA;" horiz-adv-x="287" d="M135 727Q158 727 174 744T191 784Q191 809 175 825T135 842Q112 842 96 826T80 784Q80 761 96 744T135 727ZM135 662Q110 662 88 671T50 697T24 736T14 784Q14 809 23 831T49 870T88 896T135 906Q160 906 182 897T220 871T246 832T256 784Q256 759 247 737T221 698T182 672T135 662Z"  />
<glyph unicode="&#x2DB;" d="M405 -144Q384 -190 346 -216T256 -243Q189 -243 146 -205T102 -99Q102 -65 115 -38T147 8T188 37T230 48L299 0Q277 0 256 -6T217 -24T190 -54T179 -98Q179 -129 199 -151T256 -173Q290 -173 312 -155T346 -108L405 -144Z"  />
<glyph unicode="&#x2DC;" horiz-adv-x="451" d="M409 872Q409 846 400 825T375 787T337 762T289 753Q265 753 247 762T214 781T184 801T154 810Q133 810 121 798T109 765H25Q25 790 34 812T59 850T97 875T145 884Q170 884 188 875T222 856T251 836T280 827Q300 827 312 839T325 872H409Z"  />
<glyph unicode="&#x2DD;" horiz-adv-x="487" d="M447 839L236 735L201 795L406 914L447 839ZM271 839L60 735L25 795L230 914L271 839Z"  />
<glyph unicode="&#x326;" horiz-adv-x="0" d="M107 -148L97 -147Q80 -145 66 -132T52 -95Q52 -71 68 -55T107 -39Q130 -39 145 -57T161 -104Q161 -126 154 -149T136 -193T110 -232T80 -265H39Q49 -256 59 -243T78 -214T91 -182T97 -152L107 -148Z"  />
<glyph unicode="&#x1E80;" horiz-adv-x="939" d="M913 700L710 0H608L503 356Q483 421 477 454T470 488H469Q468 488 462 454T436 356L331 0H228L26 700H140L257 275Q270 227 275 193T282 159H284Q285 159 292 193T314 275L420 621H519L625 275Q640 227 647 193T655 159H656Q657 159 663 193T681 275L798 700H913ZM303 839L344 914L549 795L514 735L303 839Z"  />
<glyph unicode="&#x1E81;" horiz-adv-x="939" d="M913 700L710 0H608L503 356Q483 421 477 454T470 488H469Q468 488 462 454T436 356L331 0H228L26 700H140L257 275Q270 227 275 193T282 159H284Q285 159 292 193T314 275L420 621H519L625 275Q640 227 647 193T655 159H656Q657 159 663 193T681 275L798 700H913ZM302 839L343 914L548 795L513 735L302 839Z"  />
<glyph unicode="&#x1E82;" horiz-adv-x="939" d="M913 700L710 0H608L503 356Q483 421 477 454T470 488H469Q468 488 462 454T436 356L331 0H228L26 700H140L257 275Q270 227 275 193T282 159H284Q285 159 292 193T314 275L420 621H519L625 275Q640 227 647 193T655 159H656Q657 159 663 193T681 275L798 700H913ZM614 839L403 735L368 795L573 914L614 839Z"  />
<glyph unicode="&#x1E83;" horiz-adv-x="939" d="M913 700L710 0H608L503 356Q483 421 477 454T470 488H469Q468 488 462 454T436 356L331 0H228L26 700H140L257 275Q270 227 275 193T282 159H284Q285 159 292 193T314 275L420 621H519L625 275Q640 227 647 193T655 159H656Q657 159 663 193T681 275L798 700H913ZM613 839L402 735L367 795L572 914L613 839Z"  />
<glyph unicode="&#x1E84;" horiz-adv-x="939" d="M913 700L710 0H608L503 356Q483 421 477 454T470 488H469Q468 488 462 454T436 356L331 0H228L26 700H140L257 275Q270 227 275 193T282 159H284Q285 159 292 193T314 275L420 621H519L625 275Q640 227 647 193T655 159H656Q657 159 663 193T681 275L798 700H913ZM580 766Q557 766 541 782T525 822Q525 846 541 862T580 878Q603 878 618 862T634 822Q634 798 619 782T580 766ZM353 766Q330 766 314 782T298 822Q298 846 314 862T353 878Q376 878 391 862T407 822Q407 798 392 782T353 766Z"  />
<glyph unicode="&#x1E85;" horiz-adv-x="939" d="M913 700L710 0H608L503 356Q483 421 477 454T470 488H469Q468 488 462 454T436 356L331 0H228L26 700H140L257 275Q270 227 275 193T282 159H284Q285 159 292 193T314 275L420 621H519L625 275Q640 227 647 193T655 159H656Q657 159 663 193T681 275L798 700H913ZM579 766Q556 766 540 782T524 822Q524 846 540 862T579 878Q602 878 617 862T633 822Q633 798 618 782T579 766ZM352 766Q329 766 313 782T297 822Q297 846 313 862T352 878Q375 878 390 862T406 822Q406 798 391 782T352 766Z"  />
<glyph unicode="&#x1E9E;" horiz-adv-x="744" d="M650 700L541 497Q533 481 524 465T508 437T497 416T492 407L493 406H499Q544 406 581 391T647 348T690 283T706 202Q706 156 690 117T645 48T574 3T481 -14Q443 -14 409 -4T345 24T293 67T255 122L357 150Q375 117 406 98T476 79Q534 79 566 113T598 201Q598 226 590 248T565 287T525 313T470 323H389V406L452 526Q458 538 465 551T477 574T487 591T491 598L489 599Q488 599 467 598T416 597H191V0H82V700H650Z"  />
<glyph unicode="&#x1EF2;" horiz-adv-x="631" d="M617 700L369 322V0H262V322L14 700H133L277 484Q292 458 303 439T315 419H317Q318 419 329 438T355 484L498 700H617ZM151 839L192 914L397 795L362 735L151 839Z"  />
<glyph unicode="&#x1EF3;" horiz-adv-x="631" d="M617 700L369 322V0H262V322L14 700H133L277 484Q292 458 303 439T315 419H317Q318 419 329 438T355 484L498 700H617ZM151 839L192 914L397 795L362 735L151 839Z"  />
<glyph unicode="&#x2007;" horiz-adv-x="651" />
<glyph unicode="&#x2009;" horiz-adv-x="113" />
<glyph unicode="&#x200A;" horiz-adv-x="40" />
<glyph unicode="&#x2013;" horiz-adv-x="550" d="M468 406V304H82V406H468Z"  />
<glyph unicode="&#x2014;" horiz-adv-x="945" d="M863 406V304H82V406H863Z"  />
<glyph unicode="&#x2018;" horiz-adv-x="294" d="M139 589L151 588Q168 587 183 573T198 534Q198 509 181 493T140 476Q115 476 99 495T82 544Q82 567 89 591T109 637T136 678T169 713H211Q200 704 190 690T171 659T157 625T151 594L139 589Z"  />
<glyph unicode="&#x2019;" horiz-adv-x="294" d="M154 599L143 600Q126 602 111 616T96 655Q96 680 113 696T154 713Q178 713 194 694T211 645Q211 622 204 598T184 552T157 511T125 476H82Q93 485 104 499T123 529T137 563T143 595L154 599Z"  />
<glyph unicode="&#x201A;" horiz-adv-x="294" d="M154 -9L143 -8Q126 -6 111 8T96 47Q96 72 113 88T154 105Q178 105 194 86T211 37Q211 14 204 -10T184 -56T157 -97T125 -132H82Q93 -123 104 -109T123 -79T137 -45T143 -13L154 -9Z"  />
<glyph unicode="&#x201C;" horiz-adv-x="479" d="M325 589L336 588Q353 586 368 573T383 534Q383 509 366 493T325 476Q301 476 284 495T267 544Q267 567 274 591T294 637T321 678T354 713H397Q386 704 375 690T356 659T342 625T336 594L325 589ZM139 589L151 588Q168 587 183 573T198 534Q198 509 181 493T140 476Q115 476 99 495T82 544Q82 567 89 591T109 637T136 678T169 713H211Q200 704 190 690T171 659T157 625T151 594L139 589Z"  />
<glyph unicode="&#x201D;" horiz-adv-x="479" d="M340 599L328 600Q311 602 296 616T281 655Q281 680 298 696T339 713Q364 713 380 694T397 645Q397 622 390 598T370 552T342 511T310 476H267Q278 485 289 499T308 529T322 563T328 595L340 599ZM154 599L143 600Q126 602 111 616T96 655Q96 680 113 696T154 713Q178 713 194 694T211 645Q211 622 204 598T184 552T157 511T125 476H82Q93 485 104 499T123 529T137 563T143 595L154 599Z"  />
<glyph unicode="&#x201E;" horiz-adv-x="474" d="M335 -9L323 -8Q306 -6 292 8T277 47Q277 72 294 88T335 105Q359 105 375 86T392 37Q392 14 385 -10T365 -56T338 -97T306 -132H263Q274 -123 285 -109T304 -79T318 -45T324 -13L335 -9ZM154 -9L143 -8Q126 -6 111 8T96 47Q96 72 113 88T154 105Q178 105 194 86T211 37Q211 14 204 -10T184 -56T157 -97T125 -132H82Q93 -123 104 -109T123 -79T137 -45T143 -13L154 -9Z"  />
<glyph unicode="&#x2020;" horiz-adv-x="472" d="M455 431H284V305Q284 247 282 192T278 95T274 26T271 0H200Q200 0 198 26T193 94T189 192T187 305V431H17V524H187V700H284V524H455V431Z"  />
<glyph unicode="&#x2021;" horiz-adv-x="472" d="M284 305V300H455V207H283Q281 164 280 126T276 60T273 16T271 0H200Q200 0 199 16T195 60T191 126T188 207H17V300H187V305V431H17V524H187V700H284V524H455V431H284V305Z"  />
<glyph unicode="&#x2022;" horiz-adv-x="367" d="M184 248Q163 248 144 256T112 279T90 312T82 355Q82 377 90 396T111 430T144 452T184 461Q205 461 223 453T255 430T277 397T285 355Q285 332 277 313T256 279T224 257T184 248Z"  />
<glyph unicode="&#x2026;" horiz-adv-x="682" d="M579 -14Q559 -14 546 0T532 35Q532 55 545 69T579 83Q599 83 612 69T626 35Q626 15 613 1T579 -14ZM339 -14Q319 -14 305 0T291 35Q291 55 305 69T339 83Q359 83 372 69T385 35Q385 15 372 1T339 -14ZM104 -14Q84 -14 71 0T56 35Q56 55 70 69T104 83Q124 83 137 69T151 35Q151 15 138 1T104 -14Z"  />
<glyph unicode="&#x2030;" horiz-adv-x="1267" d="M1064 66Q1106 66 1130 102T1154 195Q1154 251 1130 287T1064 323Q1022 323 997 287T972 195Q972 139 997 103T1064 66ZM679 66Q721 66 745 102T769 195Q769 251 745 287T679 323Q637 323 612 287T587 195Q587 139 612 103T679 66ZM1063 -8Q1025 -8 995 7T943 49T910 113T898 195Q898 239 909 276T942 340T994 382T1063 397Q1101 397 1131 382T1183 340T1216 276T1228 195Q1228 150 1217 113T1184 49T1132 7T1063 -8ZM678 -8Q640 -8 610 7T558 49T525 113T513 195Q513 239 524 276T557 340T609 382T678 397Q716 397 746 382T798 340T831 276T843 195Q843 150 832 113T799 49T747 7T678 -8ZM205 377Q247 377 271 413T295 505Q295 562 271 598T205 634Q163 634 138 598T113 505Q113 449 138 413T205 377ZM632 700H705L250 0H176L632 700ZM204 303Q166 303 136 318T84 360T51 424T39 505Q39 549 50 586T83 651T135 693T204 708Q242 708 272 693T324 651T357 587T369 505Q369 461 358 424T325 360T273 318T204 303Z"  />
<glyph unicode="&#x2039;" horiz-adv-x="441" d="M295 585L358 527L196 352L358 176L295 119L82 352L295 585Z"  />
<glyph unicode="&#x203A;" horiz-adv-x="441" d="M358 352L146 119L82 176L245 352L83 527L146 585L358 352Z"  />
<glyph unicode="&#x2044;" horiz-adv-x="118" d="M250 700H323L-132 0H-206L250 700Z"  />
<glyph unicode="&#x20AC;" horiz-adv-x="729" d="M704 191Q667 94 590 41T409 -13Q350 -13 298 6T206 60T137 144T95 256H39V330H86V350V369H39V442H95Q107 505 135 555T205 640T298 694T409 713Q506 713 580 665T694 529L586 502Q559 555 513 581T409 607Q335 607 280 564T204 442H424V369H192V350Q192 345 192 340T193 330H423V256H205Q227 179 282 137T410 94Q473 94 522 125T598 218L704 191Z"  />
<glyph unicode="&#x20B9;" horiz-adv-x="558" d="M406 614Q426 591 439 559H523V476H455Q455 431 441 393T400 325T336 278T252 253L445 0H319L129 254V336H212Q240 336 264 347T306 378T334 422T344 476H82V559H319Q301 584 274 599T212 614H82V700H523V614H406Z"  />
<glyph unicode="&#x2116;" horiz-adv-x="1022" d="M999 311V241H703V311H999ZM761 540Q761 489 786 462T850 434Q890 434 915 462T940 540Q940 591 915 619T850 647Q811 647 786 619T761 540ZM623 700V0H524L291 354Q271 382 253 410T220 461T196 498T187 512H185Q185 512 185 496T187 451T189 383T190 297V0H82V700H181L418 342Q434 318 452 292T484 243T508 207T518 192H520Q520 192 520 209T518 255T516 322T515 402V700H623ZM693 540Q693 579 705 611T738 665T788 700T850 713Q884 713 913 701T963 666T996 611T1008 540Q1008 501 996 469T963 415T912 380T850 367Q817 367 788 379T738 415T705 469T693 540Z"  />
<glyph unicode="&#x2122;" horiz-adv-x="735" d="M657 701V375H591V492Q591 512 592 531T594 564T596 588T597 597H596Q595 597 586 579T562 537L514 452H483L435 537Q421 561 412 579T402 597H401Q401 597 401 588T403 565T406 531T407 492V375H341V701H404L471 582Q486 556 491 540T498 523H499Q500 523 505 539T527 582L594 701H657ZM17 701H287V634H186V375H118V634H17V701Z"  />
<glyph unicode="&#x215B;" horiz-adv-x="693" d="M466 110Q466 82 486 65T540 47Q574 47 594 64T615 110Q615 136 594 153T540 171Q507 171 487 154T466 110ZM476 292Q476 268 494 254T540 239Q569 239 587 254T605 292Q605 315 587 330T540 345Q512 345 494 330T476 292ZM602 205Q614 202 627 195T652 175T672 146T680 108Q680 57 641 25T540 -8Q510 -8 485 0T441 24T412 61T401 108Q401 130 409 147T429 176T454 195T479 205V206Q471 208 461 215T440 233T424 259T417 293Q417 338 451 367T540 397Q595 397 629 368T664 293Q664 274 657 259T641 233T620 215T602 206V205ZM516 700H589L134 0H60L516 700ZM187 700V311H116V524Q116 537 117 551T119 579T121 600T122 609H121Q119 609 112 598T91 574L59 543L13 584L137 700H187Z"  />
<glyph unicode="&#x215C;" horiz-adv-x="757" d="M531 110Q531 82 551 65T605 47Q639 47 659 64T680 110Q680 136 659 153T605 171Q572 171 552 154T531 110ZM541 292Q541 268 559 254T605 239Q634 239 652 254T670 292Q670 315 652 330T605 345Q577 345 559 330T541 292ZM667 205Q679 202 692 195T717 175T737 146T745 108Q745 57 706 25T605 -8Q575 -8 550 0T506 24T477 61T466 108Q466 130 474 147T494 176T519 195T544 205V206Q536 208 526 215T505 233T489 259T482 293Q482 338 516 367T605 397Q660 397 694 368T729 293Q729 274 722 259T706 233T685 215T667 206V205ZM579 700H652L197 0H123L579 700ZM24 599Q34 650 70 679T161 708Q221 708 255 678T290 599Q290 579 283 563T264 536T238 519T211 512V511Q226 510 241 505T268 488T288 461T296 423Q296 370 259 337T161 303Q132 303 108 312T65 336T34 372T18 417L82 433Q85 403 105 385T161 366Q193 366 210 383T228 426Q228 453 209 468T157 484H123V538H157Q186 538 204 554T222 595Q222 615 206 630T159 646Q101 646 85 582L24 599Z"  />
<glyph unicode="&#x215D;" horiz-adv-x="739" d="M587 47Q621 47 641 64T662 110Q662 136 641 153T587 171Q554 171 534 154T513 110Q513 82 533 65T587 47ZM523 292Q523 268 541 254T587 239Q616 239 634 254T652 292Q652 315 634 330T587 345Q559 345 541 330T523 292ZM649 205Q661 202 674 195T699 175T719 146T727 108Q727 57 688 25T587 -8Q557 -8 532 0T488 24T459 61T448 108Q448 130 456 147T476 176T501 195T526 205V206Q518 208 508 215T487 233T471 259T464 293Q464 338 498 367T587 397Q642 397 676 368T711 293Q711 274 704 259T688 233T667 215T649 206V205ZM634 700L179 0H105L561 700H634ZM94 542Q101 551 116 560T157 569Q216 569 253 533T290 438Q290 409 280 384T252 341T209 313T155 303Q125 303 101 312T60 337T32 373T18 416L82 433Q87 406 103 386T153 366Q185 366 204 386T223 439Q223 472 204 492T153 513Q127 513 112 502T89 474L29 490L65 700H268V635H117L110 601Q105 575 99 560T93 543L94 542Z"  />
<glyph unicode="&#x215E;" horiz-adv-x="654" d="M427 110Q427 82 447 65T501 47Q535 47 555 64T576 110Q576 136 555 153T501 171Q468 171 448 154T427 110ZM437 292Q437 268 455 254T501 239Q530 239 548 254T566 292Q566 315 548 330T501 345Q473 345 455 330T437 292ZM563 205Q575 202 588 195T613 175T633 146T641 108Q641 57 602 25T501 -8Q471 -8 446 0T402 24T373 61T362 108Q362 130 370 147T390 176T415 195T440 205V206Q432 208 422 215T401 233T385 259T378 293Q378 338 412 367T501 397Q556 397 590 368T625 293Q625 274 618 259T602 233T581 215T563 206V205ZM477 700H550L95 0H21L477 700ZM280 700V658L102 311H31L170 581Q184 607 195 621T206 637L205 638Q204 638 184 637T137 635H10V700H280Z"  />
<glyph unicode="&#x2212;" horiz-adv-x="651" d="M539 400V310H113V400H539Z"  />
<glyph unicode="&#x2260;" horiz-adv-x="651" d="M395 406L343 293H539V203H301L249 89H160L213 203H113V293H255L307 406H113V496H349L406 620H493L436 496H539V406H395Z"  />
<glyph unicode="&#x2264;" horiz-adv-x="651" d="M487 165H356L105 367L398 611H526L240 367L487 165ZM527 81V-9H101V81H527Z"  />
<glyph unicode="&#x2265;" horiz-adv-x="651" d="M542 81V-9H116V81H542ZM403 367L117 611H245L538 367L287 165H156L403 367Z"  />
<glyph unicode="&#x25CA;" horiz-adv-x="702" d="M133 350L351 113L569 350L351 587L133 350ZM14 350L351 714L688 350L351 -14L14 350Z"  />


</font>
</defs>
</svg>
